Filmbol Forum Film İndir BRRip XviD v Baykuş Krallığı Efsanesi (Legend of the Guardians: The Owls of Ga'Hoole) - 2010 - TR - BRRip XviD
Bildirimi Kapat
Üyelik alımları açıldı.


Bildirimi Kapat
Mega linklerinin şikayet edilmemesi için global erişime kapatıp sadece yorum yapanlara açıyoruz. Bu linkleri gizleme işlemini mecburen yapıyoruz ve yorum yapmanızın siteye değil size faydası vardır. Teşekkürler yazmayı çok görüp, Random/Spam/Anlamsız mesajlar atarak forumu kirletip Mega linklerini açmaya çalışan kullanıcılara süresiz ban atacağız.

Premium Üyelik Al

Baykuş Krallığı Efsanesi (Legend of the Guardians: The Owls of Ga'Hoole) - 2010 - TR - BRRip XviD
BroserBros
Baykuş Krallığı Efsanesi (Legend of the Guardians: The Owls of Ga'Hoole) - 2010 - TR - BRRip XviD
2
311
  • Derecelendirme: 0/5 - 0 oy
  • 1
  • 2
  • 3
  • 4
  • 5
Konuyu Okuyanlar:1 Ziyaretçi
Şuan Online!
Filmin Yayınlanma Tarihi: 2010 
WWW
Şuan Online!
BroserBros Kurucu Admin
*******
Admin








 Baykuş Krallığı Efsanesi



Warner Bros yapımı üç boyutlu bu filmde genç bir baykuş olan Soren'in hayatına değiniyor. Soren babasının hikayeleri ile büyümüştür ve hikayelerde yer alan koruyucu baykuşlar onu çok etkilemiştir. Bu yüzden de Soren bir koruyucu baykuş olma hayalleri kurmaktadır, fakat bu sandığı ve hayallerinde olduğu gibi bir görev değildir...

Baykuş Krallığı Efsanesi (2010) (Legend of the Guardians: The Owls of Ga'Hoole) Filmi Imdb'den 77,000 kişi tarafından oylandı ve 6,9 puan aldı. Bu film için editör puanı 7,3 olarak belirlendi. İyi Seyirler!

Teknik Detaylar

Kod :
General
Complete name                            : /root/Desktop/6/Baykus.Kralligi.Efsanesi.2010.TR.BRRip.XviD.avi
Format                                  : AVI
Format/Info                              : Audio Video Interleave
File size                                : 700 MiB
Duration                                : 1h 36mn
Overall bit rate                        : 1 011 Kbps
Writing application                      : VirtualDubMod 1.5.10.2 (build 2540/release)
Writing library                          : VirtualDubMod build 2540/release

Video
ID                                      : 0
Format                                  : MPEG-4 Visual
Format profile                          : Advanced [email protected]
Format settings, BVOP                    : 2
Format settings, QPel                    : No
Format settings, GMC                    : No warppoints
Format settings, Matrix                  : Default (MPEG)
Codec ID                                : XVID
Codec ID/Hint                            : XviD
Duration                                : 1h 36mn
Bit rate                                : 874 Kbps
Width                                    : 656 pixels
Height                                  : 272 pixels
Display aspect ratio                    : 2.40:1
Frame rate                              : 23.976 (23976/1000) fps
Color space                              : YUV
Chroma subsampling                      : 4:2:0
Bit depth                                : 8 bits
Scan type                                : Progressive
Compression mode                        : Lossy
Bits/(Pixel*Frame)                      : 0.204
Stream size                              : 605 MiB (86%)
Writing library                          : XviD 1.2.1 (UTC 2008-12-04)

Audio
ID                                      : 1
Format                                  : MPEG Audio
Format version                          : Version 1
Format profile                          : Layer 3
Mode                                    : Joint stereo
Mode extension                          : MS Stereo
Codec ID                                : 55
Codec ID/Hint                            : MP3
Duration                                : 1h 36mn
Bit rate mode                            : Constant
Bit rate                                : 128 Kbps
Channel(s)                              : 2 channels
Sampling rate                            : 48.0 KHz
Compression mode                        : Lossy
Stream size                              : 88.6 MiB (13%)
Alignment                                : Aligned on interleaves
Interleave, duration                    : 42 ms (1.00 video frame)
Interleave, preload duration            : 504 ms

Film Detayları


 Baykuş Krallığı Efsanesi

 Baykuş Krallığı Efsanesi

 Baykuş Krallığı Efsanesi


Film Fragmanı


Film Detayları



Zip Şifresi: filmbol.org Aşağıdaki butona tıklayarak kopyalabilirsiniz.



Uptobox ile indir

1Fichier ile indir

1Fichier'den İndiremiyor musun? Tıklayın!


Mega linki şuan da gizli. Kullanıma açmak için konuya yorum yapın ve ardından sayfayı yenileyin.

Mega


Bunun için üzgünüz ancak, bu linke sadece premium üyeler erişebilir.

Filmbol Cloud

Şuan Online!
Şuan Online!
BroserBros Kurucu Admin
*******
Admin

27.01.2021 Yönetici Notu:

Kırık linkler kontrol edildi, kaldırıldı ve yenilendi. Tüm linkler tamamen çalışır durumda.
Şuan Offine!
Şuan Offine!
nazzlıcannn Yeni Üye
*
Üye

  • Konular0
  • Mesajlar5
  • Rep puanı 0
bakalım beğenecek miyiz?


Hızlı Menü: