Filmbol Forum Film İndir BRRip XviD v Denizin Ortasında (In the Heart of the Sea) - 2015 - TR - BRRip XviD
Bildirimi Kapat
Üyelik alımları açıldı.


Bildirimi Kapat
Mega linklerinin şikayet edilmemesi için global erişime kapatıp sadece yorum yapanlara açıyoruz. Bu linkleri gizleme işlemini mecburen yapıyoruz ve yorum yapmanızın siteye değil size faydası vardır. Teşekkürler yazmayı çok görüp, Random/Spam/Anlamsız mesajlar atarak forumu kirletip Mega linklerini açmaya çalışan kullanıcılara süresiz ban atacağız.

Premium Üyelik Al

Denizin Ortasında (In the Heart of the Sea) - 2015 - TR - BRRip XviD
BroserBros
Denizin Ortasında (In the Heart of the Sea) - 2015 - TR - BRRip XviD
2
326
  • Derecelendirme: 0/5 - 0 oy
  • 1
  • 2
  • 3
  • 4
  • 5
Konuyu Okuyanlar:1 Ziyaretçi
Şuan Online!
Filmin Yayınlanma Tarihi: 2015 
WWW
Şuan Online!
BroserBros Kurucu Admin
*******
Admin








 Denizin Ortasında



Nantucked ismindeki bir gemi, pasifik okyanusunun kalbine balina avcılığı için gidiyor. Ancak bu okyanus o kadar da sakin değil ve balinaları da sanıldığı kadar ufak değil. İspermeçet balinası onları burada istemediği için saldırıyor ve bu saldırı sonucunda gemi alabora oluyor. Sonucunda ise sadece 8 kişi hayatta kalıyor ve filmde onların amansız hayatta kalma mücadelesine şahit oluyoruz..

Denizin Ortasında (2015) (In the Heart of the Sea) Filmi Imdb'den 116,000 kişi tarafından oylandı ve 6,9 puan aldı. Bu film için editör puanı 7,3 olarak belirlendi. İyi Seyirler!

Teknik Detaylar

Kod :
General
Complete name                            : /root/Desktop/3/Denizin.Ortasında.2015.BRRip.XviD.TR.Filmbol.avi
Format                                  : AVI
Format/Info                              : Audio Video Interleave
File size                                : 1.22 GiB
Duration                                : 2h 1mn
Overall bit rate                        : 1 432 Kbps
Writing application                      : VirtualDubMod 1.5.10.2 (build 2540/release)
Writing library                          : VirtualDubMod build 2540/release

Video
ID                                      : 0
Format                                  : MPEG-4 Visual
Format profile                          : Advanced [email protected]
Format settings, BVOP                    : 2
Format settings, QPel                    : No
Format settings, GMC                    : No warppoints
Format settings, Matrix                  : Default (H.263)
Muxing mode                              : Packed bitstream
Codec ID                                : XVID
Codec ID/Hint                            : XviD
Duration                                : 2h 1mn
Bit rate                                : 1 230 Kbps
Width                                    : 720 pixels
Height                                  : 400 pixels
Display aspect ratio                    : 16:9
Frame rate                              : 23.976 (23976/1000) fps
Color space                              : YUV
Chroma subsampling                      : 4:2:0
Bit depth                                : 8 bits
Scan type                                : Progressive
Compression mode                        : Lossy
Bits/(Pixel*Frame)                      : 0.178
Stream size                              : 1.05 GiB (86%)
Writing library                          : XviD 66

Audio
ID                                      : 1
Format                                  : AC-3
Format/Info                              : Audio Coding 3
Mode extension                          : CM (complete main)
Format settings, Endianness              : Big
Codec ID                                : 2000
Duration                                : 2h 1mn
Bit rate mode                            : Constant
Bit rate                                : 192 Kbps
Channel(s)                              : 2 channels
Channel positions                        : Front: L R
Sampling rate                            : 48.0 KHz
Frame rate                              : 31.250 fps (1536 spf)
Compression mode                        : Lossy
Stream size                              : 167 MiB (13%)
Alignment                                : Split accross interleaves
Interleave, duration                    : 42 ms (1.00 video frame)
Interleave, preload duration            : 500 ms

Film Detayları


 Denizin Ortasında

 Denizin Ortasında

 Denizin Ortasında


Film Fragmanı


Film Detayları



Zip Şifresi: filmbol.org Aşağıdaki butona tıklayarak kopyalabilirsiniz.



Uptobox ile indir

1Fichier ile indir

1Fichier'den İndiremiyor musun? Tıklayın!


Mega linki şuan da gizli. Kullanıma açmak için konuya yorum yapın ve ardından sayfayı yenileyin.

Mega


Bunun için üzgünüz ancak, bu linke sadece premium üyeler erişebilir.

Filmbol Cloud

Şuan Online!
Şuan Online!
BroserBros Kurucu Admin
*******
Admin

27.01.2021 Yönetici Notu:

Kırık linkler kontrol edildi, kaldırıldı ve yenilendi. Tüm linkler tamamen çalışır durumda.
Şuan Offine!
Şuan Offine!
Furkan61 Cezalı Üye

  • Konular0
  • Mesajlar329
güzel


Hızlı Menü: