Filmbol Forum Film İndir BRRip XviD v X-Men: Geçmiş Günler Gelecek (X-Men: Days of Future Past) - 2014 - TR - BRRip XviD | tt1877832
Mega linklerinin şikayet edilmemesi için global erişime kapatıp sadece yorum yapanlara açıyoruz. Bu linkleri gizleme işlemini mecburen yapıyoruz ve yorum yapmanızın siteye değil size faydası vardır. Teşekürler yazmayı çok görüp, Random/Spam mesajlar atarak Mega linklerini açmaya çalışan kullanıcılara önce süresiz ban, devam ederse IP ban atacağız.
Filmbol'da moderatör olmak ister misiniz? Bizimle iletişime geçmek için tıklayın!
X-Men: Geçmiş Günler Gelecek (X-Men: Days of Future Past) - 2014 - TR - BRRip XviD | tt1877832
BroserBros
X-Men: Geçmiş Günler Gelecek (X-Men: Days of Future Past) - 2014 - TR - BRRip XviD | tt1877832
3
2065
  • Derecelendirme: 0/5 - 0 oy
  • 1
  • 2
  • 3
  • 4
  • 5
Konuyu Okuyanlar:1 Ziyaretçi
Şuan Online!
Filmin Yayınlanma Tarihi: 2014 
WWW
Şuan Online!
BroserBros Kurucu Admin
*******
Admin



 X-Men: Geçmiş Günler Gelecek



Mutantlar soylarının tükenmemesi için zamanda yolculuk yapmak zorundadır zira gelecekte kamplara hapsedilmiş durumdadırlar. Sentinel’ler tarafından avlanıp öldürüldükleri için de nesilleri tükenmenin eşiğine gelmiştir. Mutantların soyunu kurtarabilmek için iki ezeli düşman Magneto ve Charles Xavier güçlerini birleştirirler. Planları Sentinel’lerin yarattığı vahşeti durdurmak üzerine kuruludur. Wolverine (Hugh Jackman), kendi kendini iyileştirebildiği için zamanda yolculuğun onda yol açabileceği yan etkiler yok olacaktır. Bu yüzden Wolverine’i Kitty Pryde’ın da yardımıyla geçmişe gönderirler. Trask Industries’in deneyler sonucu ürettiği Sentinel’lerin yapım aşamasına engel olacaklardır. Acaba bu konuda başarılı olabilecekler midir?

X-Men: Geçmiş Günler Gelecek (2014) (X-Men: Days of Future Past) | tt1877832 Filmi Imdb'den 670,000 kişi tarafından oylandı ve 7,9 puan aldı. Bu film için editör puanı %90 olarak belirlendi. İyi Seyirler!

Teknik Detaylar

Kod :
General
Unique ID                                : 309550514388937951090601887875196310895 (0xE8E142AFE13A806B89F3CF3EAA38D56F)
Complete name                            : /home/BroserBros/Desktop/8/X.Men.Geçmiş.Günler.Gelecek.2014.BRRip.XViD.TR.Filmbol.avi
Format                                   : Matroska
Format version                           : Version 4
File size                                : 1.45 GiB
Duration                                 : 2 h 11 min
Overall bit rate                         : 1 579 kb/s
Movie name                               : X-Men: Geçmiş Günler Gelecek - X-Men Days of Future Past - 2014 | Filmbol.org
Encoded date                             : UTC 2021-04-11 15:54:37
Writing application                      : mkvmerge v53.0.0 ('Fool's Gold') 64-bit
Writing library                          : libebml v1.4.1 + libmatroska v1.6.2
FileExtension_Invalid                    : mkv mk3d mka mks

Video
ID                                       : 1
Format                                   : MPEG-4 Visual
Format profile                           : Advanced [email protected]
Format settings                          : BVOP2 / Custom Matrix
Format settings, BVOP                    : 2
Format settings, QPel                    : No
Format settings, GMC                     : No warppoints
Format settings, Matrix                  : Custom
Muxing mode                              : Packed bitstream
Codec ID                                 : V_MS/VFW/FOURCC / XVID
Codec ID/Hint                            : XviD
Duration                                 : 2 h 11 min
Bit rate                                 : 1 449 kb/s
Width                                    : 720 pixels
Height                                   : 304 pixels
Display aspect ratio                     : 2.35:1
Frame rate mode                          : Constant
Frame rate                               : 23.976 (24000/1001) FPS
Color space                              : YUV
Chroma subsampling                       : 4:2:0
Bit depth                                : 8 bits
Scan type                                : Progressive
Compression mode                         : Lossy
Bits/(Pixel*Frame)                       : 0.276
Stream size                              : 1.33 GiB (92%)
Title                                    : X-Men: Geçmiş Günler Gelecek - X-Men Days of Future Past - 2014 | Filmbol.org
Writing library                          : XviD 1.2.1 (UTC 2008-12-04)
Default                                  : Yes
Forced                                   : No

Audio
ID                                       : 2
Format                                   : MPEG Audio
Format version                           : Version 1
Format profile                           : Layer 3
Format settings                          : Joint stereo / MS Stereo
Codec ID                                 : A_MPEG/L3
Codec ID/Hint                            : MP3
Duration                                 : 2 h 11 min
Bit rate mode                            : Constant
Bit rate                                 : 128 kb/s
Channel(s)                               : 2 channels
Sampling rate                            : 48.0 kHz
Frame rate                               : 41.667 FPS (1152 SPF)
Compression mode                         : Lossy
Stream size                              : 120 MiB (8%)
Title                                    : X-Men: Geçmiş Günler Gelecek - X-Men Days of Future Past - 2014 | Filmbol.org
Writing library                          : LAME3.98.4
Default                                  : Yes
Forced                                   : No

Film Detayları


 X-Men: Geçmiş Günler Gelecek

 X-Men: Geçmiş Günler Gelecek

 X-Men: Geçmiş Günler Gelecek


Film Fragmanı


Film Detayları


Uptobox ile indir

1Fichier ile indir

1Fichier'den İndiremiyor musun? Tıklayın!


Mega linki şuan da gizli. Kullanıma açmak için konuya yorum yapın ve ardından sayfayı yenileyin.

Mega


Bunun için üzgünüz ancak, bu linke sadece premium üyeler erişebilir.

Filmbol Cloud





Şuan Offine!
Şuan Offine!
Ap0calypse Süper Üye
***
Super Üye

  • Konular0
  • Mesajlar39
  • Rep puanı 0
eline sağlık
Şuan Offine!
Şuan Offine!
tarik55 Uzman Üye
**
Uzman Üye

  • Konular0
  • Mesajlar16
  • Rep puanı 0
Tşkler
Şuan Online!
Şuan Online!
BroserBros Kurucu Admin
*******
Admin

https://forum.filmbol.org/showthread.php?tid=4222


Konu ile Alakalı Benzer Konular
Konular Yazar Yorumlar Okunma Son Yorum
Filmin Yayınlanma Tarihi: 2018
Han Solo: Bir Star Wars Hikâyesi (Solo: A Star Wars Story) - 2018 - TR - BRRip XviD | tt3778644 BroserBros 2 438 1 saat önce
Son Yorum: Furkan61
Filmin Yayınlanma Tarihi: 2015
Yıldız Savaşları 7: Güç Uyanıyor (Star Wars: Episode VII - The Force Awakens) - 2015 - TR - BRRip XviD | tt2488496 BroserBros 8 2,184 1 saat önce
Son Yorum: Furkan61
Filmin Yayınlanma Tarihi: 1983
Yıldız Savaşları 6: Jedi'ın Dönüşü (Star Wars: Episode VI - Return of the Jedi) - 1983 - TR - BRRip XviD | tt0086190 BroserBros 8 1,785 1 saat önce
Son Yorum: Furkan61
Filmin Yayınlanma Tarihi: 1980
Yıldız Savaşları 5: İmparator (Star Wars: Episode V - The Empire Strikes Back) - 1980 - TR - BRRip XviD | tt0080684 BroserBros 6 1,779 1 saat önce
Son Yorum: Furkan61
Filmin Yayınlanma Tarihi: 2011
Transformers: Ay'ın Karanlık Yüzü (Transformers: Dark of the Moon) - 2011 - TR - BRRip XviD | tt1399103 TheSteeL 2 14 8 saat önce
Son Yorum: TheSteeL

Hızlı Menü: