Filmbol Forum Film İndir 720P v X-Men: Geçmiş Günler Gelecek (X-Men: Days of Future Past) - 2014 - TR+ORG - 720P | tt1877832
Mega linklerinin şikayet edilmemesi için global erişime kapatıp sadece yorum yapanlara açıyoruz. Bu linkleri gizleme işlemini mecburen yapıyoruz ve yorum yapmanızın siteye değil size faydası vardır. Teşekürler yazmayı çok görüp, Random/Spam mesajlar atarak Mega linklerini açmaya çalışan kullanıcılara önce süresiz ban, devam ederse IP ban atacağız.
Filmbol'da moderatör olmak ister misiniz? Bizimle iletişime geçmek için tıklayın!
X-Men: Geçmiş Günler Gelecek (X-Men: Days of Future Past) - 2014 - TR+ORG - 720P | tt1877832
BroserBros
X-Men: Geçmiş Günler Gelecek (X-Men: Days of Future Past) - 2014 - TR+ORG - 720P | tt1877832
8
2727
  • Derecelendirme: 0/5 - 0 oy
  • 1
  • 2
  • 3
  • 4
  • 5
Konuyu Okuyanlar:1 Ziyaretçi
Şuan Online!
Filmin Yayınlanma Tarihi: 2014 
WWW
Şuan Online!
BroserBros Kurucu Admin
*******
Admin



 X-Men: Geçmiş Günler Gelecek



Mutantlar soylarının tükenmemesi için zamanda yolculuk yapmak zorundadır zira gelecekte kamplara hapsedilmiş durumdadırlar. Sentinel’ler tarafından avlanıp öldürüldükleri için de nesilleri tükenmenin eşiğine gelmiştir. Mutantların soyunu kurtarabilmek için iki ezeli düşman Magneto ve Charles Xavier güçlerini birleştirirler. Planları Sentinel’lerin yarattığı vahşeti durdurmak üzerine kuruludur. Wolverine (Hugh Jackman), kendi kendini iyileştirebildiği için zamanda yolculuğun onda yol açabileceği yan etkiler yok olacaktır. Bu yüzden Wolverine’i Kitty Pryde’ın da yardımıyla geçmişe gönderirler. Trask Industries’in deneyler sonucu ürettiği Sentinel’lerin yapım aşamasına engel olacaklardır. Acaba bu konuda başarılı olabilecekler midir?

X-Men: Geçmiş Günler Gelecek (2014) (X-Men: Days of Future Past) | tt1877832 Filmi Imdb'den 670,000 kişi tarafından oylandı ve 7,9 puan aldı. Bu film için editör puanı %90 olarak belirlendi. İyi Seyirler!

Teknik Detaylar

Kod :
General
Unique ID                                : 264989559169575954458326907803757785033 (0xC75B21F8547E9C0C42910C48FD712FC9)
Complete name                            : /home/BroserBros/Desktop/8/X.Men.Geçmiş.Günler.Gelecek.2014.720p.BluRay.x264.TR.ENG.Filmbol.mkv
Format                                   : Matroska
Format version                           : Version 4
File size                                : 1.27 GiB
Duration                                 : 2 h 11 min
Overall bit rate                         : 1 378 kb/s
Movie name                               : X-Men: Geçmiş Günler Gelecek - X-Men Days of Future Past - 2014 | Filmbol.org
Encoded date                             : UTC 2021-04-11 15:10:11
Writing application                      : mkvmerge v53.0.0 ('Fool's Gold') 64-bit
Writing library                          : libebml v1.4.1 + libmatroska v1.6.2

Video
ID                                       : 1
Format                                   : AVC
Format/Info                              : Advanced Video Codec
Format profile                           : [email protected]
Format settings                          : CABAC / 4 Ref Frames
Format settings, CABAC                   : Yes
Format settings, Reference frames        : 4 frames
Codec ID                                 : V_MPEG4/ISO/AVC
Duration                                 : 2 h 11 min
Bit rate                                 : 834 kb/s
Width                                    : 1 280 pixels
Height                                   : 534 pixels
Display aspect ratio                     : 2.40:1
Frame rate mode                          : Constant
Frame rate                               : 23.976 (24000/1001) FPS
Original frame rate                      : 23.976 (23976/1000) FPS
Color space                              : YUV
Chroma subsampling                       : 4:2:0
Bit depth                                : 8 bits
Scan type                                : Progressive
Bits/(Pixel*Frame)                       : 0.051
Stream size                              : 785 MiB (61%)
Title                                    : 720P - Filmbol.org
Writing library                          : x264 core 142 r2409 d6b4e63
Encoding settings                        : cabac=1 / ref=4 / deblock=1:-1:-1 / analyse=0x3:0x133 / me=umh / subme=9 / psy=1 / psy_rd=1.00:0.15 / mixed_ref=1 / me_range=24 / chroma_me=1 / trellis=2 / 8x8dct=1 / cqm=0 / deadzone=21,11 / fast_pskip=0 / chroma_qp_offset=-3 / threads=12 / lookahead_threads=1 / sliced_threads=0 / nr=0 / decimate=1 / interlaced=0 / bluray_compat=0 / constrained_intra=0 / bframes=3 / b_pyramid=2 / b_adapt=2 / b_bias=0 / direct=3 / weightb=1 / open_gop=0 / weightp=2 / keyint=250 / keyint_min=23 / scenecut=40 / intra_refresh=0 / rc_lookahead=60 / rc=2pass / mbtree=1 / bitrate=834 / ratetol=1.0 / qcomp=0.60 / qpmin=0 / qpmax=69 / qpstep=4 / cplxblur=20.0 / qblur=0.5 / vbv_maxrate=31250 / vbv_bufsize=31250 / nal_hrd=none / filler=0 / ip_ratio=1.40 / aq=1:1.00
Default                                  : Yes
Forced                                   : No
Color range                              : Limited
Color primaries                          : BT.709
Matrix coefficients                      : BT.709

Audio #1
ID                                       : 2
Format                                   : AC-3
Format/Info                              : Audio Coding 3
Commercial name                          : Dolby Digital
Codec ID                                 : A_AC3
Duration                                 : 2 h 11 min
Bit rate mode                            : Constant
Bit rate                                 : 448 kb/s
Channel(s)                               : 6 channels
Channel layout                           : L R C LFE Ls Rs
Sampling rate                            : 48.0 kHz
Frame rate                               : 31.250 FPS (1536 SPF)
Compression mode                         : Lossy
Delay relative to video                  : -83 ms
Stream size                              : 422 MiB (32%)
Title                                    : Türkçe - Filmbol.org
Language                                 : Turkish
Service kind                             : Complete Main
Default                                  : Yes
Forced                                   : No

Audio #2
ID                                       : 3
Format                                   : AAC LC
Format/Info                              : Advanced Audio Codec Low Complexity
Codec ID                                 : A_AAC-2
Duration                                 : 2 h 11 min
Bit rate                                 : 93.8 kb/s
Channel(s)                               : 2 channels
Channel layout                           : L R
Sampling rate                            : 48.0 kHz
Frame rate                               : 46.875 FPS (1024 SPF)
Compression mode                         : Lossy
Delay relative to video                  : -83 ms
Stream size                              : 88.3 MiB (7%)
Title                                    : Orjinal Dil - Filmbol.org
Language                                 : English
Default                                  : No
Forced                                   : No

Text
ID                                       : 4
Format                                   : UTF-8
Codec ID                                 : S_TEXT/UTF8
Codec ID/Info                            : UTF-8 Plain Text
Duration                                 : 2 h 1 min
Bit rate                                 : 46 b/s
Count of elements                        : 1005
Stream size                              : 41.0 KiB (0%)
Title                                    : Türkçe - Filmbol.org
Language                                 : Turkish
Default                                  : No
Forced                                   : No

Film Detayları


 X-Men: Geçmiş Günler Gelecek

 X-Men: Geçmiş Günler Gelecek

 X-Men: Geçmiş Günler Gelecek


Film Fragmanı


Film Detayları

Uptobox ile indir

1Fichier ile indir

1Fichier'den İndiremiyor musun? Tıklayın!


Mega linki şuan da gizli. Kullanıma açmak için konuya yorum yapın ve ardından sayfayı yenileyin.

Mega


Bunun için üzgünüz ancak, bu linke sadece premium üyeler erişebilir.

Filmbol Cloud





Şuan Offine!
Şuan Offine!
metaldeniz Filmbol'un ilk Uzman Üyesi
***
Super Üye

  • Konular0
  • Mesajlar11
  • Rep puanı 0
güzel film
Şuan Offine!
Şuan Offine!
isayhan Süper Üye
***
Super Üye

  • Konular0
  • Mesajlar28
  • Rep puanı 0
paylaşım için saĞOL
Şuan Offine!
Şuan Offine!
shadnw Uzman Üye
**
Uzman Üye

  • Konular0
  • Mesajlar9
  • Rep puanı 0
teşekkürler
Şuan Offine!
Şuan Offine!
sametguler61 Yeni Üye
*
Üye

  • Konular0
  • Mesajlar5
  • Rep puanı 0
baya iyi
Şuan Offine!
Şuan Offine!
BlackSpace Uzman Üye
**
Uzman Üye

  • Konular0
  • Mesajlar9
  • Rep puanı 0
Teşekkürler
Şuan Offine!
Şuan Offine!
WALONG Yeni Üye
*
Üye

  • Konular0
  • Mesajlar2
  • Rep puanı 0
Güzel film
Şuan Offine!
Şuan Offine!
Koçeren Uzman Üye
**
Uzman Üye

  • Konular0
  • Mesajlar11
  • Rep puanı 0
güzel
Şuan Online!
Şuan Online!
BroserBros Kurucu Admin
*******
Admin

https://forum.filmbol.org/showthread.php?tid=4222


Hızlı Menü: