Filmbol Forum Film İndir BRRip XviD v Transformers 5: Son Şövalye (Transformers: The Last Knight) - 2017 - TR - BRRip XviD
Bildirimi Kapat
Üyelik alımları açıldı.


Bildirimi Kapat
Mega linklerinin şikayet edilmemesi için global erişime kapatıp sadece yorum yapanlara açıyoruz. Bu linkleri gizleme işlemini mecburen yapıyoruz ve yorum yapmanızın siteye değil size faydası vardır. Teşekkürler yazmayı çok görüp, Random/Spam/Anlamsız mesajlar atarak forumu kirletip Mega linklerini açmaya çalışan kullanıcılara süresiz ban atacağız.

Premium Üyelik Al

Transformers 5: Son Şövalye (Transformers: The Last Knight) - 2017 - TR - BRRip XviD
BroserBros
Transformers 5: Son Şövalye (Transformers: The Last Knight) - 2017 - TR - BRRip XviD
4
511
  • Derecelendirme: 0/5 - 0 oy
  • 1
  • 2
  • 3
  • 4
  • 5
Konuyu Okuyanlar:4 Ziyaretçi
Şuan Online!
Filmin Yayınlanma Tarihi: 2017 
WWW
Şuan Online!
BroserBros Kurucu Admin
*******
Admin








 Transformers 5: Son Şövalye



Optimus Prime yaratıcısı ile tanışmış ve yeni bir görev almıştır. Bununla birlikte Optimus yeniden saf değiştirmiş ve artık hedefinde gezegenlerini canlandırmak için dünyayı yok etmek yatıyor. Optimus'u durdurabilecek ekip ise Bumblebee, bir oxford profesörü ve bir ingiliz lorduna düşüyor...

Transformers 5: Son Şövalye (2017) (Transformers: The Last Knight) Filmi Imdb'den 130,000 kişi tarafından oylandı ve 5,2 puan aldı. Bu film için editör puanı 7,0 olarak belirlendi. İyi Seyirler!

Teknik Detaylar

Kod :
General
Complete name                            : /root/Desktop/2/Transformers.5.Son.Şovalye.2017.BRRip.XviD.TR.Flmbol.avi
Format                                  : AVI
Format/Info                              : Audio Video Interleave
File size                                : 1.39 GiB
Duration                                : 2h 34mn
Overall bit rate                        : 1 288 Kbps
Writing application                      : VirtualDubMod 1.5.10.2 (build 2540/release)
Writing library                          : VirtualDubMod build 2540/release

Video
ID                                      : 0
Format                                  : MPEG-4 Visual
Format profile                          : Advanced [email protected]
Format settings, BVOP                    : 2
Format settings, QPel                    : No
Format settings, GMC                    : No warppoints
Format settings, Matrix                  : Default (H.263)
Muxing mode                              : Packed bitstream
Codec ID                                : XVID
Codec ID/Hint                            : XviD
Duration                                : 2h 34mn
Bit rate                                : 1 151 Kbps
Width                                    : 720 pixels
Height                                  : 384 pixels
Display aspect ratio                    : 1.85:1
Frame rate                              : 23.976 (24000/1001) fps
Color space                              : YUV
Chroma subsampling                      : 4:2:0
Bit depth                                : 8 bits
Scan type                                : Progressive
Compression mode                        : Lossy
Bits/(Pixel*Frame)                      : 0.174
Stream size                              : 1.24 GiB (89%)
Writing library                          : XviD 66

Audio
ID                                      : 1
Format                                  : MPEG Audio
Format version                          : Version 1
Format profile                          : Layer 3
Mode                                    : Joint stereo
Mode extension                          : MS Stereo
Codec ID                                : 55
Codec ID/Hint                            : MP3
Duration                                : 2h 34mn
Bit rate mode                            : Constant
Bit rate                                : 128 Kbps
Channel(s)                              : 2 channels
Sampling rate                            : 48.0 KHz
Compression mode                        : Lossy
Stream size                              : 141 MiB (10%)
Alignment                                : Aligned on interleaves
Interleave, duration                    : 42 ms (1.00 video frame)
Interleave, preload duration            : 504 ms

Film Detayları


 Transformers 5: Son Şövalye

 Transformers 5: Son Şövalye

 Transformers 5: Son Şövalye


Film Fragmanı


Film Detayları



Zip Şifresi: filmbol.org Aşağıdaki butona tıklayarak kopyalabilirsiniz.



Uptobox ile indir

1Fichier ile indir

1Fichier'den İndiremiyor musun? Tıklayın!


Mega linki şuan da gizli. Kullanıma açmak için konuya yorum yapın ve ardından sayfayı yenileyin.

Mega


Bunun için üzgünüz ancak, bu linke sadece premium üyeler erişebilir.

Filmbol Cloud

Şuan Offine!
Şuan Offine!
sectechno Süper Üye
***
Super Üye

  • Konular5
  • Mesajlar102
  • Rep puanı 5
Teşekkürler BroserBros.İyi çalışmalar.
Şuan Online!
Şuan Online!
BroserBros Kurucu Admin
*******
Admin

28.01.2021 Yönetici Notu:

Kırık linkler kontrol edildi, kaldırıldı ve yenilendi. Tüm linkler tamamen çalışır durumda.
Şuan Offine!
Şuan Offine!
Muxina Yeni Üye
*
Üye

  • Konular0
  • Mesajlar4
  • Rep puanı 0
Teşekkürler.
Şuan Offine!
Şuan Offine!
darkportal Uzman Üye
**
Uzman Üye

  • Konular0
  • Mesajlar13
  • Rep puanı 0
link için teşekkürler


Hızlı Menü: