Filmbol Forum Film İndir 720P v William (William) - 2019 - TR+ENG - 720P
Bildirimi Kapat
Üyelik alımları açıldı.


Bildirimi Kapat
Mega linklerinin şikayet edilmemesi için global erişime kapatıp sadece yorum yapanlara açıyoruz. Bu linkleri gizleme işlemini mecburen yapıyoruz ve yorum yapmanızın siteye değil size faydası vardır. Teşekkürler yazmayı çok görüp, Random/Spam/Anlamsız mesajlar atarak forumu kirletip Mega linklerini açmaya çalışan kullanıcılara süresiz ban atacağız.

Premium Üyelik Al

William (William) - 2019 - TR+ENG - 720P
BroserBros
William (William) - 2019 - TR+ENG - 720P
1
274
  • Derecelendirme: 0/5 - 0 oy
  • 1
  • 2
  • 3
  • 4
  • 5
Konuyu Okuyanlar:1 Ziyaretçi
Şuan Online!
Filmin Yayınlanma Tarihi: 2019 
WWW
Şuan Online!
BroserBros Kurucu Admin
*******
Admin








 William



Doktor Julian Reed ve Barbara Sullivan çok ünlü iki akademisyendir. Bu ikilinin tek bir gayesi vardır; 35.000 yıl önce yaşamış bir insan yaratmak ve onu test edebilmektir. Bir çok akademisyen tarafından bunun imkansız olduğu veya gereksiz olduğu gibi geri dönüşler almışlardır. İkili, bu olayı kendilerine bir hedef olarak belirlemişlerdir ve uğraş sonucunda, başarabilmişlerdir. Fakat şimdi, William ismini verdikleri bu insan şimdiki dünya ile ciddi iletişim problemleri yaşayacaktır...

William (2019) (William) Filmi Imdb'den 500 kişi tarafından oylandı ve 5,3 puan aldı. Bu film için editör puanı 4,5 olarak belirlendi. İyi Seyirler!

Teknik Detaylar

Kod :
General
Unique ID                                : 208172434585575029350411904768036287603 (0x9C9C8D73071F09600152EE009DEFB473)
Complete name                            : /root/Desktop/3/William.2019.720p.WEB-DL.x264.TR.ENG.Filmbol.mkv
Format                                  : Matroska
Format version                          : Version 4 / Version 2
File size                                : 1.17 GiB
Duration                                : 1h 42mn
Overall bit rate                        : 1 644 Kbps
Movie name                              : William (2019) - Filmbol.org
Encoded date                            : UTC 2020-05-06 08:18:48
Writing application                      : mkvmerge v8.8.0 ('Wind at my back') 64bit
Writing library                          : libebml v1.3.3 + libmatroska v1.4.4

Video
ID                                      : 1
Format                                  : AVC
Format/Info                              : Advanced Video Codec
Format profile                          : [email protected]
Format settings, CABAC                  : Yes
Format settings, ReFrames                : 2 frames
Format settings, GOP                    : M=1, N=25
Codec ID                                : V_MPEG4/ISO/AVC
Duration                                : 1h 42mn
Bit rate                                : 1 258 Kbps
Width                                    : 1 280 pixels
Height                                  : 532 pixels
Display aspect ratio                    : 2.40:1
Frame rate mode                          : Constant
Frame rate                              : 23.976 (24000/1001) fps
Color space                              : YUV
Chroma subsampling                      : 4:2:0
Bit depth                                : 8 bits
Scan type                                : Progressive
Bits/(Pixel*Frame)                      : 0.077
Stream size                              : 920 MiB (77%)
Title                                    : Filmbol.org
Language                                : English
Default                                  : Yes
Forced                                  : No

Audio #1
ID                                      : 2
Format                                  : AC-3
Format/Info                              : Audio Coding 3
Mode extension                          : CM (complete main)
Format settings, Endianness              : Big
Codec ID                                : A_AC3
Duration                                : 1h 42mn
Bit rate mode                            : Constant
Bit rate                                : 192 Kbps
Channel(s)                              : 2 channels
Channel positions                        : Front: L R
Sampling rate                            : 48.0 KHz
Frame rate                              : 31.250 fps (1536 spf)
Compression mode                        : Lossy
Stream size                              : 140 MiB (12%)
Title                                    : Filmbol.org
Language                                : Turkish
Default                                  : Yes
Forced                                  : No

Audio #2
ID                                      : 3
Format                                  : AC-3
Format/Info                              : Audio Coding 3
Mode extension                          : CM (complete main)
Format settings, Endianness              : Big
Codec ID                                : A_AC3
Duration                                : 1h 42mn
Bit rate mode                            : Constant
Bit rate                                : 192 Kbps
Channel(s)                              : 2 channels
Channel positions                        : Front: L R
Sampling rate                            : 48.0 KHz
Frame rate                              : 31.250 fps (1536 spf)
Compression mode                        : Lossy
Stream size                              : 140 MiB (12%)
Title                                    : Filmbol.org
Language                                : English
Default                                  : No
Forced                                  : No

Film Detayları


 William

 William

 William


Film Fragmanı


Film Detayları



Zip Şifresi: filmbol.org Aşağıdaki butona tıklayarak kopyalabilirsiniz.


Uptobox ile indir

1Fichier ile indir

1Fichier'den İndiremiyor musun? Tıklayın!


Mega linki şuan da gizli. Kullanıma açmak için konuya yorum yapın ve ardından sayfayı yenileyin.

Mega


Bunun için üzgünüz ancak, bu linke sadece premium üyeler erişebilir.

Filmbol Cloud

Şuan Online!
Şuan Online!
BroserBros Kurucu Admin
*******
Admin

07.02.2021 Yönetici Notu:

Kırık linkler kontrol edildi, kaldırıldı ve yenilendi. Tüm linkler tamamen çalışır durumda.


Hızlı Menü: