Filmbol Forum Film İndir BRRip XviD v William (William) - 2019 - TR - BRRip XviD
Bildirimi Kapat
Üyelik alımları açıldı.


Bildirimi Kapat
Mega linklerinin şikayet edilmemesi için global erişime kapatıp sadece yorum yapanlara açıyoruz. Bu linkleri gizleme işlemini mecburen yapıyoruz ve yorum yapmanızın siteye değil size faydası vardır. Teşekkürler yazmayı çok görüp, Random/Spam/Anlamsız mesajlar atarak forumu kirletip Mega linklerini açmaya çalışan kullanıcılara süresiz ban atacağız.

Premium Üyelik Al

William (William) - 2019 - TR - BRRip XviD
BroserBros
William (William) - 2019 - TR - BRRip XviD
2
288
  • Derecelendirme: 0/5 - 0 oy
  • 1
  • 2
  • 3
  • 4
  • 5
Konuyu Okuyanlar:1 Ziyaretçi
Şuan Online!
Filmin Yayınlanma Tarihi: 2019 
WWW
Şuan Online!
BroserBros Kurucu Admin
*******
Admin








 William



Doktor Julian Reed ve Barbara Sullivan çok ünlü iki akademisyendir. Bu ikilinin tek bir gayesi vardır; 35.000 yıl önce yaşamış bir insan yaratmak ve onu test edebilmektir. Bir çok akademisyen tarafından bunun imkansız olduğu veya gereksiz olduğu gibi geri dönüşler almışlardır. İkili, bu olayı kendilerine bir hedef olarak belirlemişlerdir ve uğraş sonucunda, başarabilmişlerdir. Fakat şimdi, William ismini verdikleri bu insan şimdiki dünya ile ciddi iletişim problemleri yaşayacaktır...

William (2019) (William) Filmi Imdb'den 500 kişi tarafından oylandı ve 5,3 puan aldı. Bu film için editör puanı 4,5 olarak belirlendi. İyi Seyirler!

Teknik Detaylar

Kod :
General
Complete name                            : /root/Desktop/3/William.2019.HDRip.XViD.TR.Filmbol.avi
Format                                  : AVI
Format/Info                              : Audio Video Interleave
File size                                : 817 MiB
Duration                                : 1h 42mn
Overall bit rate                        : 1 117 Kbps

Video
ID                                      : 0
Format                                  : MPEG-4 Visual
Format profile                          : Advanced [email protected]
Format settings, BVOP                    : 1
Format settings, QPel                    : No
Format settings, GMC                    : No warppoints
Format settings, Matrix                  : Default (MPEG)
Codec ID                                : XVID
Codec ID/Hint                            : XviD
Duration                                : 1h 42mn
Bit rate                                : 976 Kbps
Width                                    : 720 pixels
Height                                  : 300 pixels
Display aspect ratio                    : 2.40:1
Frame rate                              : 23.976 (23976/1000) fps
Color space                              : YUV
Chroma subsampling                      : 4:2:0
Bit depth                                : 8 bits
Scan type                                : Progressive
Compression mode                        : Lossy
Bits/(Pixel*Frame)                      : 0.189
Stream size                              : 714 MiB (87%)
Writing library                          : XviD 64

Audio
ID                                      : 1
Format                                  : MPEG Audio
Format version                          : Version 1
Format profile                          : Layer 3
Mode                                    : Joint stereo
Mode extension                          : MS Stereo
Codec ID                                : 55
Codec ID/Hint                            : MP3
Duration                                : 1h 42mn
Bit rate mode                            : Constant
Bit rate                                : 128 Kbps
Channel(s)                              : 2 channels
Sampling rate                            : 48.0 KHz
Compression mode                        : Lossy
Stream size                              : 93.6 MiB (11%)
Alignment                                : Aligned on interleaves
Interleave, duration                    : 24 ms (0.58 video frame)

Film Detayları


 William

 William

 William


Film Fragmanı


Film Detayları



Zip Şifresi: filmbol.org Aşağıdaki butona tıklayarak kopyalabilirsiniz.



Uptobox ile indir

1Fichier ile indir

1Fichier'den İndiremiyor musun? Tıklayın!


Mega linki şuan da gizli. Kullanıma açmak için konuya yorum yapın ve ardından sayfayı yenileyin.

Mega


Bunun için üzgünüz ancak, bu linke sadece premium üyeler erişebilir.

Filmbol Cloud

Şuan Online!
Şuan Online!
BroserBros Kurucu Admin
*******
Admin

07.02.2021 Yönetici Notu:

Kırık linkler kontrol edildi, kaldırıldı ve yenilendi. Tüm linkler tamamen çalışır durumda.
Şuan Online!
Şuan Online!
algül Süper Üye
***
Super Üye

  • Konular0
  • Mesajlar61
  • Rep puanı 0
çok sağolun.


Hızlı Menü: