Filmbol Forum Film İndir BRRip XviD v Yelkenli Adında Bir Çocuk (A Boy Called Sailboat) - 2018 - TR - BRRip XviD
Bildirimi Kapat
Üyelik alımları açıldı.


Bildirimi Kapat
Mega linklerinin şikayet edilmemesi için global erişime kapatıp sadece yorum yapanlara açıyoruz. Bu linkleri gizleme işlemini mecburen yapıyoruz ve yorum yapmanızın siteye değil size faydası vardır. Teşekkürler yazmayı çok görüp, Random/Spam/Anlamsız mesajlar atarak forumu kirletip Mega linklerini açmaya çalışan kullanıcılara süresiz ban atacağız.

Premium Üyelik Al

Yelkenli Adında Bir Çocuk (A Boy Called Sailboat) - 2018 - TR - BRRip XviD
BroserBros
Yelkenli Adında Bir Çocuk (A Boy Called Sailboat) - 2018 - TR - BRRip XviD
1
311
  • Derecelendirme: 0/5 - 0 oy
  • 1
  • 2
  • 3
  • 4
  • 5
Konuyu Okuyanlar:2 Ziyaretçi
Şuan Online!
Filmin Yayınlanma Tarihi: 2018 
WWW
Şuan Online!
BroserBros Kurucu Admin
*******
Admin








 Yelkenli Adında Bir Çocuk



İspanyada bir kasabada kuraklık baş göstermiştir ve en ufak bir yağmur belirtisi yoktur. Ardından bir erkek oğlan dünyaya gelir ve onu bir lütuf olarak görürler. Ardından bu çoçugun ismini de yelkenli (Sailboat) koyarlar. Sailboat aileye çok iyi gelecektir...

Yelkenli Adında Bir Çocuk (2018) (A Boy Called Sailboat) Filmi Imdb'den 1,000 kişi tarafından oylandı ve 6,7 puan aldı. Bu film için editör puanı 6,2 olarak belirlendi. İyi Seyirler!

Teknik Detaylar

Kod :
General
Complete name                            : /root/Desktop/2/Yelkenli.Adında.Bir.Çocuk.2018.HDRip.XViD.TR.Filmbol.avi
Format                                  : AVI
Format/Info                              : Audio Video Interleave
File size                                : 1.42 GiB
Duration                                : 1h 26mn
Overall bit rate                        : 2 350 Kbps

Video
ID                                      : 0
Format                                  : MPEG-4 Visual
Format profile                          : Advanced [email protected]
Format settings, BVOP                    : 1
Format settings, QPel                    : No
Format settings, GMC                    : No warppoints
Format settings, Matrix                  : Custom
Codec ID                                : XVID
Codec ID/Hint                            : XviD
Duration                                : 1h 26mn
Bit rate                                : 2 209 Kbps
Width                                    : 704 pixels
Height                                  : 384 pixels
Display aspect ratio                    : 1.85:1
Frame rate                              : 23.976 (23976/1000) fps
Color space                              : YUV
Chroma subsampling                      : 4:2:0
Bit depth                                : 8 bits
Scan type                                : Progressive
Compression mode                        : Lossy
Bits/(Pixel*Frame)                      : 0.341
Stream size                              : 1.33 GiB (94%)
Writing library                          : XviD 73

Audio
ID                                      : 1
Format                                  : MPEG Audio
Format version                          : Version 1
Format profile                          : Layer 3
Mode                                    : Joint stereo
Mode extension                          : MS Stereo
Codec ID                                : 55
Codec ID/Hint                            : MP3
Duration                                : 1h 26mn
Bit rate mode                            : Constant
Bit rate                                : 128 Kbps
Channel(s)                              : 2 channels
Sampling rate                            : 48.0 KHz
Compression mode                        : Lossy
Stream size                              : 79.1 MiB (5%)
Alignment                                : Aligned on interleaves
Interleave, duration                    : 24 ms (0.58 video frame)

Film Detayları


 Yelkenli Adında Bir Çocuk

 Yelkenli Adında Bir Çocuk

 Yelkenli Adında Bir Çocuk


Film Fragmanı


Film Detayları



Zip Şifresi: filmbol.org Aşağıdaki butona tıklayarak kopyalabilirsiniz.



Uptobox ile indir

1Fichier ile indir

1Fichier'den İndiremiyor musun? Tıklayın!


Mega linki şuan da gizli. Kullanıma açmak için konuya yorum yapın ve ardından sayfayı yenileyin.

Mega


Bunun için üzgünüz ancak, bu linke sadece premium üyeler erişebilir.

Filmbol Cloud

Şuan Online!
Şuan Online!
BroserBros Kurucu Admin
*******
Admin

07.02.2021 Yönetici Notu:

Kırık linkler kontrol edildi, kaldırıldı ve yenilendi. Tüm linkler tamamen çalışır durumda.


Hızlı Menü: