Filmbol Forum Film İndir 720P v X-Men: Son Direniş (X-Men: The Last Stand) - 2006 - TR+ORG - 720P | tt0376994
Mega linklerinin şikayet edilmemesi için global erişime kapatıp sadece yorum yapanlara açıyoruz. Bu linkleri gizleme işlemini mecburen yapıyoruz ve yorum yapmanızın siteye değil size faydası vardır. Teşekürler yazmayı çok görüp, Random/Spam mesajlar atarak Mega linklerini açmaya çalışan kullanıcılara önce süresiz ban, devam ederse IP ban atacağız.
Filmbol'da moderatör olmak ister misiniz? Bizimle iletişime geçmek için tıklayın!
X-Men: Son Direniş (X-Men: The Last Stand) - 2006 - TR+ORG - 720P | tt0376994
BroserBros
X-Men: Son Direniş (X-Men: The Last Stand) - 2006 - TR+ORG - 720P | tt0376994
5
2474
  • Derecelendirme: 0/5 - 0 oy
  • 1
  • 2
  • 3
  • 4
  • 5
Konuyu Okuyanlar:1 Ziyaretçi
Şuan Online!
Filmin Yayınlanma Tarihi: 2006 
WWW
Şuan Online!
BroserBros Kurucu Admin
*******
Admin



 X-Men: Son Direniş



Bir devam filmi olan X MEN SON DİRENİŞ, bu üçüncü bölümde bir önceki bölümde sona doğru gündeme gelen Dark Phoenix hikayelerini temel alıyor. İkinci filmde, final kısmında bir takım telepatik yeteneklere sahip olan Jean Grey, sevdiği dostları uğrunda kendisinden vazgeçmişti. Bu sefer Phoenix yani Anka Kuşu aracılığı ile yeniden hayat bulacak gibi görünüyor. Her şeyin olduğu üzere bu güzel haberin de bir bedeli olacak mutlaka. Bu bedeli ödemesi gereken başkaları da var bu kez. Son derece heyecanlı bir bölümle karşımızda.

X-Men: Son Direniş (2006) (X-Men: The Last Stand) | tt0376994 Filmi Imdb'den 500,000 kişi tarafından oylandı ve 6,7 puan aldı. Bu film için editör puanı %75 olarak belirlendi. İyi Seyirler!

Teknik Detaylar

Kod :
General
Unique ID                                : 66348228753276335069052307742244015358 (0x31EA343CB4B785C450EE45A8B8C90CFE)
Complete name                            : /home/BroserBros/Desktop/7/X-Men.Son.Direniş.2006.720p.BluRay.x264.TR.ENG.Filmbol.mkv
Format                                   : Matroska
Format version                           : Version 4
File size                                : 984 MiB
Duration                                 : 1 h 44 min
Overall bit rate                         : 1 322 kb/s
Movie name                               : X-Men: Son Direniş - X-Men: The Last Stand - 2006 | Filmbol.org
Encoded date                             : UTC 2021-04-06 11:41:38
Writing application                      : mkvmerge v53.0.0 ('Fool's Gold') 64-bit
Writing library                          : libebml v1.4.1 + libmatroska v1.6.2

Video
ID                                       : 1
Format                                   : AVC
Format/Info                              : Advanced Video Codec
Format profile                           : [email protected]
Format settings                          : CABAC / 6 Ref Frames
Format settings, CABAC                   : Yes
Format settings, Reference frames        : 6 frames
Codec ID                                 : V_MPEG4/ISO/AVC
Duration                                 : 1 h 44 min
Bit rate                                 : 778 kb/s
Width                                    : 1 280 pixels
Height                                   : 528 pixels
Display aspect ratio                     : 2.40:1
Frame rate mode                          : Constant
Frame rate                               : 23.976 (24000/1001) FPS
Color space                              : YUV
Chroma subsampling                       : 4:2:0
Bit depth                                : 8 bits
Scan type                                : Progressive
Bits/(Pixel*Frame)                       : 0.048
Stream size                              : 579 MiB (59%)
Title                                    : 720P - Filmbol.org
Writing library                          : x264 core 120 r2164 da19765
Encoding settings                        : cabac=1 / ref=6 / deblock=1:-2:-1 / analyse=0x3:0x133 / me=umh / subme=9 / psy=1 / psy_rd=1.00:0.15 / mixed_ref=1 / me_range=16 / chroma_me=1 / trellis=2 / 8x8dct=1 / cqm=0 / deadzone=21,11 / fast_pskip=1 / chroma_qp_offset=-3 / threads=6 / sliced_threads=0 / nr=0 / decimate=1 / interlaced=0 / bluray_compat=0 / constrained_intra=0 / bframes=3 / b_pyramid=2 / b_adapt=2 / b_bias=0 / direct=3 / weightb=1 / open_gop=0 / weightp=2 / keyint=240 / keyint_min=23 / scenecut=40 / intra_refresh=0 / rc_lookahead=60 / rc=2pass / mbtree=1 / bitrate=778 / ratetol=1.0 / qcomp=0.60 / qpmin=10 / qpmax=51 / qpstep=4 / cplxblur=20.0 / qblur=0.5 / ip_ratio=1.40 / aq=1:1.00
Default                                  : Yes
Forced                                   : No

Audio #1
ID                                       : 2
Format                                   : AC-3
Format/Info                              : Audio Coding 3
Commercial name                          : Dolby Digital
Codec ID                                 : A_AC3
Duration                                 : 1 h 44 min
Bit rate mode                            : Constant
Bit rate                                 : 448 kb/s
Channel(s)                               : 6 channels
Channel layout                           : L R C LFE Ls Rs
Sampling rate                            : 48.0 kHz
Frame rate                               : 31.250 FPS (1536 SPF)
Compression mode                         : Lossy
Delay relative to video                  : -83 ms
Stream size                              : 334 MiB (34%)
Title                                    : Türkçe - Filmbol.org
Language                                 : Turkish
Service kind                             : Complete Main
Default                                  : Yes
Forced                                   : No

Audio #2
ID                                       : 3
Format                                   : AAC LC
Format/Info                              : Advanced Audio Codec Low Complexity
Codec ID                                 : A_AAC-2
Duration                                 : 1 h 44 min
Bit rate                                 : 94.0 kb/s
Channel(s)                               : 2 channels
Channel layout                           : L R
Sampling rate                            : 32.0 kHz
Frame rate                               : 31.250 FPS (1024 SPF)
Compression mode                         : Lossy
Delay relative to video                  : -83 ms
Stream size                              : 70.0 MiB (7%)
Title                                    : Orjinal Dil - Filmbol.org
Language                                 : English
Default                                  : No
Forced                                   : No

Text
ID                                       : 4
Format                                   : UTF-8
Codec ID                                 : S_TEXT/UTF8
Codec ID/Info                            : UTF-8 Plain Text
Duration                                 : 1 h 43 min
Bit rate                                 : 42 b/s
Count of elements                        : 780
Stream size                              : 32.0 KiB (0%)
Title                                    : Türkçe - Filmbol.org
Language                                 : Turkish
Default                                  : Yes
Forced                                   : No

Film Detayları


 X-Men: Son Direniş

 X-Men: Son Direniş

 X-Men: Son Direniş


Film Fragmanı


Film Detayları

Uptobox ile indir

1Fichier ile indir

1Fichier'den İndiremiyor musun? Tıklayın!


Mega linki şuan da gizli. Kullanıma açmak için konuya yorum yapın ve ardından sayfayı yenileyin.

Mega


Bunun için üzgünüz ancak, bu linke sadece premium üyeler erişebilir.

Filmbol Cloud





Şuan Offine!
Şuan Offine!
isayhan Süper Üye
***
Super Üye

  • Konular0
  • Mesajlar28
  • Rep puanı 0
paylaşım için teşekkürler
Şuan Online!
Şuan Online!
BroserBros Kurucu Admin
*******
Admin

14.12.2019 Güncelleme Notu:

Linkler yenilendi. Kırık linkler kaldırıldı ve Genel Konu Düzenlemesi Yapıldı
Şuan Offine!
Şuan Offine!
BlackSpace Uzman Üye
**
Uzman Üye

  • Konular0
  • Mesajlar9
  • Rep puanı 0
Teşekkürler
Şuan Online!
Şuan Online!
BroserBros Kurucu Admin
*******
Admin

10.04.2021 Yönetici Notu:

Kırık linkler kontrol edildi, kaldırıldı ve yenilendi. Tüm linkler tamamen çalışır durumda.
Şuan Online!
Şuan Online!
Osman123 Yeni Üye
*
Üye

  • Konular0
  • Mesajlar2
  • Rep puanı 0
Harika


Hızlı Menü: