Filmbol Forum Film İndir 720P v X-Men 2 (X2: X-Men United) - 2003 - TR+ORG - 720P | tt0290334
Mega linklerinin şikayet edilmemesi için global erişime kapatıp sadece yorum yapanlara açıyoruz. Bu linkleri gizleme işlemini mecburen yapıyoruz ve yorum yapmanızın siteye değil size faydası vardır. Teşekürler yazmayı çok görüp, Random/Spam mesajlar atarak Mega linklerini açmaya çalışan kullanıcılara önce süresiz ban, devam ederse IP ban atacağız.
Filmbol'da moderatör olmak ister misiniz? Bizimle iletişime geçmek için tıklayın!
X-Men 2 (X2: X-Men United) - 2003 - TR+ORG - 720P | tt0290334
BroserBros
X-Men 2 (X2: X-Men United) - 2003 - TR+ORG - 720P | tt0290334
5
2725
  • Derecelendirme: 0/5 - 0 oy
  • 1
  • 2
  • 3
  • 4
  • 5
Konuyu Okuyanlar:1 Ziyaretçi
Şuan Online!
Filmin Yayınlanma Tarihi: 2003 
WWW
Şuan Online!
BroserBros Kurucu Admin
*******
Admin



 X-Men 2



Styker isimli kötü niyetli bir varlık şehrin ve insanlığın düzenine çomak sokmak üzere güç toplamaktadır. Büyük bir kaosu beraberinde getirmeyi amaçlayan William Styker, müthiş bir şehilde organize olmaktadır. Alışılmışın dışındaki süper güçleriyle çevresine korku yaymaya başlayan Styker’ın karşısına dikilebilecek tek ekip ise Profesör Charles Xavier’in üstün mutantlardan oluşan ekibidir. Magneto ise onlara yardım etmeye hazır bir biçimde beklemektedir. Mutantlar arasında ayrı bi öneme sahip olan Wolverine ise, kendi geçmişini aramak üzere bir yolculuğa çıkmanın eşiğindedir.

X-Men 2 (2003) (X2: X-Men United) | tt0290334 Filmi Imdb'den 550,000 kişi tarafından oylandı ve 7,4 puan aldı. Bu film için editör puanı %85 olarak belirlendi. İyi Seyirler!

Teknik Detaylar

Kod :
General
Unique ID                                : 108734798138725399789891782106069009744 (0x51CD8F749EACB08F8D206DA028DF0550)
Complete name                            : /home/BroserBros/Desktop/6/X-Men.2.2003.720p.BluRay.x264.TR.ENG.Filmbol.mkv
Format                                   : Matroska
Format version                           : Version 4
File size                                : 965 MiB
Duration                                 : 2 h 13 min
Overall bit rate                         : 1 009 kb/s
Movie name                               : X-Men: 2 - X2 - 2003 | Filmbol.org
Encoded date                             : UTC 2021-04-06 09:22:24
Writing application                      : mkvmerge v53.0.0 ('Fool's Gold') 64-bit
Writing library                          : libebml v1.4.1 + libmatroska v1.6.2

Video
ID                                       : 1
Format                                   : AVC
Format/Info                              : Advanced Video Codec
Format profile                           : [email protected]
Format settings                          : CABAC / 6 Ref Frames
Format settings, CABAC                   : Yes
Format settings, Reference frames        : 6 frames
Codec ID                                 : V_MPEG4/ISO/AVC
Duration                                 : 2 h 13 min
Bit rate                                 : 689 kb/s
Width                                    : 1 280 pixels
Height                                   : 528 pixels
Display aspect ratio                     : 2.40:1
Frame rate mode                          : Constant
Frame rate                               : 23.976 (24000/1001) FPS
Color space                              : YUV
Chroma subsampling                       : 4:2:0
Bit depth                                : 8 bits
Scan type                                : Progressive
Bits/(Pixel*Frame)                       : 0.043
Stream size                              : 659 MiB (68%)
Title                                    : 720P - Filmbol.org
Writing library                          : x264 core 120 r2164 da19765
Encoding settings                        : cabac=1 / ref=6 / deblock=1:-2:-1 / analyse=0x3:0x133 / me=umh / subme=9 / psy=1 / psy_rd=1.00:0.15 / mixed_ref=1 / me_range=16 / chroma_me=1 / trellis=2 / 8x8dct=1 / cqm=0 / deadzone=21,11 / fast_pskip=1 / chroma_qp_offset=-3 / threads=6 / sliced_threads=0 / nr=0 / decimate=1 / interlaced=0 / bluray_compat=0 / constrained_intra=0 / bframes=3 / b_pyramid=2 / b_adapt=2 / b_bias=0 / direct=3 / weightb=1 / open_gop=0 / weightp=2 / keyint=240 / keyint_min=23 / scenecut=40 / intra_refresh=0 / rc_lookahead=60 / rc=2pass / mbtree=1 / bitrate=689 / ratetol=1.0 / qcomp=0.60 / qpmin=10 / qpmax=51 / qpstep=4 / cplxblur=20.0 / qblur=0.5 / ip_ratio=1.40 / aq=1:1.00
Default                                  : Yes
Forced                                   : No

Audio #1
ID                                       : 2
Format                                   : AC-3
Format/Info                              : Audio Coding 3
Commercial name                          : Dolby Digital
Codec ID                                 : A_AC3
Duration                                 : 2 h 13 min
Bit rate mode                            : Constant
Bit rate                                 : 224 kb/s
Channel(s)                               : 2 channels
Channel layout                           : L R
Sampling rate                            : 48.0 kHz
Frame rate                               : 31.250 FPS (1536 SPF)
Compression mode                         : Lossy
Delay relative to video                  : -83 ms
Stream size                              : 214 MiB (22%)
Title                                    : Türkçe - Filmbol.org
Language                                 : Turkish
Service kind                             : Complete Main
Default                                  : Yes
Forced                                   : No

Audio #2
ID                                       : 3
Format                                   : AAC LC
Format/Info                              : Advanced Audio Codec Low Complexity
Codec ID                                 : A_AAC-2
Duration                                 : 2 h 13 min
Bit rate                                 : 93.9 kb/s
Channel(s)                               : 2 channels
Channel layout                           : L R
Sampling rate                            : 32.0 kHz
Frame rate                               : 31.250 FPS (1024 SPF)
Compression mode                         : Lossy
Delay relative to video                  : -83 ms
Stream size                              : 89.9 MiB (9%)
Title                                    : Orjinal Dil - Filmbol.org
Language                                 : English
Default                                  : No
Forced                                   : No

Text
ID                                       : 4
Format                                   : UTF-8
Codec ID                                 : S_TEXT/UTF8
Codec ID/Info                            : UTF-8 Plain Text
Duration                                 : 2 h 4 min
Bit rate                                 : 32 b/s
Count of elements                        : 867
Stream size                              : 29.2 KiB (0%)
Title                                    : Türkçe - Filmbol.org
Language                                 : Turkish
Default                                  : No
Forced                                   : No

Film Detayları


 X-Men 2

 X-Men 2

 X-Men 2


Film Fragmanı


Film Detayları

Uptobox ile indir

1Fichier ile indir

1Fichier'den İndiremiyor musun? Tıklayın!


Mega linki şuan da gizli. Kullanıma açmak için konuya yorum yapın ve ardından sayfayı yenileyin.

Mega


Bunun için üzgünüz ancak, bu linke sadece premium üyeler erişebilir.

Filmbol Cloud





Şuan Offine!
Şuan Offine!
isayhan Süper Üye
***
Super Üye

  • Konular0
  • Mesajlar28
  • Rep puanı 0
paylaşım için teşekkürler
Şuan Offine!
Şuan Offine!
Koçeren Uzman Üye
**
Uzman Üye

  • Konular0
  • Mesajlar11
  • Rep puanı 0
güzel
Şuan Online!
Şuan Online!
BroserBros Kurucu Admin
*******
Admin

14.12.2019 Güncelleme Notu:

Linkler yenilendi. Kırık linkler kaldırıldı ve Genel Konu Düzenlemesi Yapıldı
Şuan Offine!
Şuan Offine!
BlackSpace Uzman Üye
**
Uzman Üye

  • Konular0
  • Mesajlar9
  • Rep puanı 0
Teşekkürler
Şuan Online!
Şuan Online!
BroserBros Kurucu Admin
*******
Admin

10.04.2021 Yönetici Notu:

Kırık linkler kontrol edildi, kaldırıldı ve yenilendi. Tüm linkler tamamen çalışır durumda.


Konu ile Alakalı Benzer Konular
Konular Yazar Yorumlar Okunma Son Yorum
Filmin Yayınlanma Tarihi: 2015
Yenilmezler: Ultron Çağı (Avengers: Age of Ultron) - 2015 - TR+ORG - 720P | tt2395427 BroserBros 8 5,989 41 dakika önce
Son Yorum: denizyesilova00
Filmin Yayınlanma Tarihi: 2017
Galaksinin Koruyucuları 2 (Guardians of the Galaxy Vol. 2) - 2017 - TR+ORG - 720P | tt3896198 BroserBros 3 453 42 dakika önce
Son Yorum: denizyesilova00
Filmin Yayınlanma Tarihi: 2014
Galaksinin Koruyucuları (Guardians of the Galaxy) - 2014 - TR+ORG - 720P | tt2015381 BroserBros 3 448 44 dakika önce
Son Yorum: denizyesilova00
Filmin Yayınlanma Tarihi: 2011
Transformers: Ay'ın Karanlık Yüzü (Transformers: Dark of the Moon) - 2011 - TR+ORG - 720P | tt1399103 TheSteeL 0 6 10 saat önce
Son Yorum: TheSteeL
Filmin Yayınlanma Tarihi: 2021
Her Şey Yok Olur (Things Heard & Seen) - 2021 - TR+ORG - 720P | tt10962368 TheSteeL 0 9 10 saat önce
Son Yorum: TheSteeL

Hızlı Menü: