Filmbol Forum Film İndir BRRip XviD v X-Men 1 (X-Men) - 2000 - TR - BRRip XviD | tt0120903
Mega linklerinin şikayet edilmemesi için global erişime kapatıp sadece yorum yapanlara açıyoruz. Bu linkleri gizleme işlemini mecburen yapıyoruz ve yorum yapmanızın siteye değil size faydası vardır. Teşekürler yazmayı çok görüp, Random/Spam mesajlar atarak Mega linklerini açmaya çalışan kullanıcılara önce süresiz ban, devam ederse IP ban atacağız.
Filmbol'da moderatör olmak ister misiniz? Bizimle iletişime geçmek için tıklayın!
X-Men 1 (X-Men) - 2000 - TR - BRRip XviD | tt0120903
BroserBros
X-Men 1 (X-Men) - 2000 - TR - BRRip XviD | tt0120903
4
1930
  • Derecelendirme: 0/5 - 0 oy
  • 1
  • 2
  • 3
  • 4
  • 5
Konuyu Okuyanlar:1 Ziyaretçi
Şuan Online!
Filmin Yayınlanma Tarihi: 2000 
WWW
Şuan Online!
BroserBros Kurucu Admin
*******
Admin



 X-Men 1



Profesör Xavier, dünyada birçok kişinin farkında olmadığı bir durumdan haberdardır. Bu nedenle kendi isteklerinden bağımsız olarak muhtelif mutasyonlara tabii tutulmuş olan insanları, yeteneklerini açığa çıkarabilmek adına bir okulda toplamıştır.

X-Men 1 (2000) (X-Men) | tt0120903 Filmi Imdb'den 600,000 kişi tarafından oylandı ve 7,4 puan aldı. Bu film için editör puanı %84 olarak belirlendi. İyi Seyirler!

Teknik Detaylar

Kod :
General
Unique ID                                : 107927653489309355775903296952776492770 (0x51321C26E119D3DFA9678DA4218B86E2)
Complete name                            : /home/BroserBros/Desktop/5/X-Men.2000.BRRip.XViD.TR.Filmbol.avi
Format                                   : Matroska
Format version                           : Version 4
File size                                : 695 MiB
Duration                                 : 1 h 44 min
Overall bit rate                         : 932 kb/s
Movie name                               : X-Men 1 - 2000 | Filmbol.org
Encoded date                             : UTC 2021-04-06 09:18:27
Writing application                      : mkvmerge v53.0.0 ('Fool's Gold') 64-bit
Writing library                          : libebml v1.4.1 + libmatroska v1.6.2
FileExtension_Invalid                    : mkv mk3d mka mks

Video
ID                                       : 1
Format                                   : MPEG-4 Visual
Format profile                           : Advanced [email protected]
Format settings                          : BVOP2
Format settings, BVOP                    : 2
Format settings, QPel                    : No
Format settings, GMC                     : No warppoints
Format settings, Matrix                  : Default (MPEG)
Codec ID                                 : V_MS/VFW/FOURCC / XVID
Codec ID/Hint                            : XviD
Duration                                 : 1 h 44 min
Bit rate                                 : 802 kb/s
Width                                    : 656 pixels
Height                                   : 272 pixels
Display aspect ratio                     : 2.40:1
Frame rate mode                          : Constant
Frame rate                               : 23.976 (23976/1000) FPS
Color space                              : YUV
Chroma subsampling                       : 4:2:0
Bit depth                                : 8 bits
Scan type                                : Progressive
Compression mode                         : Lossy
Bits/(Pixel*Frame)                       : 0.187
Stream size                              : 598 MiB (86%)
Title                                    : X-Men 1 - 2000 | Filmbol.org
Writing library                          : XviD 1.2.1 (UTC 2008-12-04)
Default                                  : Yes
Forced                                   : No

Audio
ID                                       : 2
Format                                   : MPEG Audio
Format version                           : Version 1
Format profile                           : Layer 3
Format settings                          : Joint stereo / MS Stereo
Codec ID                                 : A_MPEG/L3
Codec ID/Hint                            : MP3
Duration                                 : 1 h 44 min
Bit rate mode                            : Constant
Bit rate                                 : 128 kb/s
Channel(s)                               : 2 channels
Sampling rate                            : 48.0 kHz
Frame rate                               : 41.667 FPS (1152 SPF)
Compression mode                         : Lossy
Stream size                              : 95.5 MiB (14%)
Title                                    : X-Men 1 - 2000 | Filmbol.org
Default                                  : Yes
Forced                                   : No

Film Detayları


 X-Men 1

 X-Men 1

 X-Men 1


Film Fragmanı


Film Detayları


Uptobox ile indir

1Fichier ile indir

1Fichier'den İndiremiyor musun? Tıklayın!


Mega linki şuan da gizli. Kullanıma açmak için konuya yorum yapın ve ardından sayfayı yenileyin.

Mega


Bunun için üzgünüz ancak, bu linke sadece premium üyeler erişebilir.

Filmbol Cloud





Şuan Online!
Şuan Online!
BroserBros Kurucu Admin
*******
Admin

14.12.2019 Güncelleme Notu:

Linkler yenilendi. Kırık linkler kaldırıldı ve Genel Konu Düzenlemesi Yapıldı
Şuan Offine!
Şuan Offine!
Ap0calypse Süper Üye
***
Super Üye

  • Konular0
  • Mesajlar39
  • Rep puanı 0
eline sağlık
Şuan Offine!
Şuan Offine!
cemsav97 Süper Üye
***
Super Üye

  • Konular0
  • Mesajlar67
  • Rep puanı 2
teşekkürler
Şuan Online!
Şuan Online!
BroserBros Kurucu Admin
*******
Admin

10.04.2021 Yönetici Notu:

Kırık linkler kontrol edildi, kaldırıldı ve yenilendi. Tüm linkler tamamen çalışır durumda.


Hızlı Menü: