Filmbol Forum Film İndir 720P v Yüzüklerin Efendisi: Kralın Dönüşü (The Lord of the Rings: The Return of the King) - 2003 - TR+ORG - 720P | tt0167260
Mega linklerinin şikayet edilmemesi için global erişime kapatıp sadece yorum yapanlara açıyoruz. Bu linkleri gizleme işlemini mecburen yapıyoruz ve yorum yapmanızın siteye değil size faydası vardır. Teşekürler yazmayı çok görüp, Random/Spam mesajlar atarak Mega linklerini açmaya çalışan kullanıcılara önce süresiz ban, devam ederse IP ban atacağız.
Filmbol'da moderatör olmak ister misiniz? Bizimle iletişime geçmek için tıklayın!
Yüzüklerin Efendisi: Kralın Dönüşü (The Lord of the Rings: The Return of the King) - 2003 - TR+ORG - 720P | tt0167260
BroserBros
Yüzüklerin Efendisi: Kralın Dönüşü (The Lord of the Rings: The Return of the King) - 2003 - TR+ORG - 720P | tt0167260
15
6310
  • Derecelendirme: 0/5 - 0 oy
  • 1
  • 2
  • 3
  • 4
  • 5
Konuyu Okuyanlar:1 Ziyaretçi
Şuan Online!
Filmin Yayınlanma Tarihi: 2003 
WWW
Şuan Online!
BroserBros Kurucu Admin
*******
Admin



 Yüzüklerin Efendisi: Kralın Dönüşü



Gandalf ve Aragorn, Sauron’un ordusuna karşı Erkekler Dünyası’na önderlik ederek, Tek Yüzük ile Doom Dağı’na yaklaşırken Frodo ve Sam’ten bakışlarını çizmeye çalışırlar.

Yüzüklerin Efendisi: Kralın Dönüşü (2003) (The Lord of the Rings: The Return of the King) | tt0167260 Filmi Imdb'den 1,700,000 kişi tarafından oylandı ve 8,9 puan aldı. Bu film için editör puanı %95 olarak belirlendi. İyi Seyirler!

Teknik Detaylar

Kod :
General
Unique ID                                : 232127746189926453888382656237382949078 (0xAEA22D7FC7E119A0DED343B9C64C58D6)
Complete name                            : /home/BroserBros/Desktop/5/Yüzüklerin.Efendisi.Kralın.Dönüşü.Extended.2003.720p.BluRay.x264.TR.ENG.Filmbol.mkv
Format                                   : Matroska
Format version                           : Version 4
File size                                : 2.11 GiB
Duration                                 : 4 h 23 min
Overall bit rate                         : 1 148 kb/s
Movie name                               : Yüzüklerin Efendisi: Kralın Dönüşü - The Lord of the Rings: The Return of the King - 2003 | Filmbol.org
Encoded date                             : UTC 2021-04-26 14:31:49
Writing application                      : mkvmerge v53.0.0 ('Fool's Gold') 64-bit
Writing library                          : libebml v1.4.1 + libmatroska v1.6.2

Video
ID                                       : 1
Format                                   : AVC
Format/Info                              : Advanced Video Codec
Format profile                           : [email protected]
Format settings                          : CABAC / 7 Ref Frames
Format settings, CABAC                   : Yes
Format settings, Reference frames        : 7 frames
Codec ID                                 : V_MPEG4/ISO/AVC
Duration                                 : 4 h 23 min
Bit rate                                 : 826 kb/s
Width                                    : 1 280 pixels
Height                                   : 528 pixels
Display aspect ratio                     : 2.40:1
Frame rate mode                          : Constant
Frame rate                               : 23.976 (24000/1001) FPS
Color space                              : YUV
Chroma subsampling                       : 4:2:0
Bit depth                                : 8 bits
Scan type                                : Progressive
Bits/(Pixel*Frame)                       : 0.051
Stream size                              : 1.52 GiB (72%)
Title                                    : 720P - Filmbol.org
Writing library                          : x264 core 129 r2230 1cffe9f
Encoding settings                        : cabac=1 / ref=8 / deblock=1:0:0 / analyse=0x3:0x133 / me=umh / subme=9 / psy=1 / psy_rd=1.00:0.00 / mixed_ref=1 / me_range=16 / chroma_me=1 / trellis=2 / 8x8dct=1 / cqm=0 / deadzone=21,11 / fast_pskip=1 / chroma_qp_offset=-2 / threads=12 / lookahead_threads=2 / sliced_threads=0 / nr=0 / decimate=1 / interlaced=0 / bluray_compat=0 / constrained_intra=0 / bframes=3 / b_pyramid=1 / b_adapt=2 / b_bias=2 / direct=3 / weightb=1 / open_gop=0 / weightp=2 / keyint=240 / keyint_min=23 / scenecut=40 / intra_refresh=0 / rc_lookahead=60 / rc=2pass / mbtree=1 / bitrate=826 / ratetol=1.0 / qcomp=0.60 / qpmin=10 / qpmax=51 / qpstep=4 / cplxblur=20.0 / qblur=0.5 / ip_ratio=1.40 / aq=1:1.00
Default                                  : Yes
Forced                                   : No

Audio #1
ID                                       : 2
Format                                   : AC-3
Format/Info                              : Audio Coding 3
Commercial name                          : Dolby Digital
Codec ID                                 : A_AC3
Duration                                 : 4 h 23 min
Bit rate mode                            : Constant
Bit rate                                 : 224 kb/s
Channel(s)                               : 2 channels
Channel layout                           : L R
Sampling rate                            : 48.0 kHz
Frame rate                               : 31.250 FPS (1536 SPF)
Compression mode                         : Lossy
Delay relative to video                  : -83 ms
Stream size                              : 422 MiB (20%)
Title                                    : Türkçe - Filmbol.org
Language                                 : Turkish
Service kind                             : Complete Main
Default                                  : Yes
Forced                                   : No

Audio #2
ID                                       : 3
Format                                   : AAC LC
Format/Info                              : Advanced Audio Codec Low Complexity
Codec ID                                 : A_AAC-2
Duration                                 : 4 h 23 min
Bit rate                                 : 96.0 kb/s
Channel(s)                               : 2 channels
Channel layout                           : L R
Sampling rate                            : 48.0 kHz
Frame rate                               : 46.875 FPS (1024 SPF)
Compression mode                         : Lossy
Delay relative to video                  : -83 ms
Stream size                              : 181 MiB (8%)
Title                                    : Orjinal Dil - Filmbol.org
Language                                 : English
Default                                  : No
Forced                                   : No

Text #1
ID                                       : 4
Format                                   : UTF-8
Codec ID                                 : S_TEXT/UTF8
Codec ID/Info                            : UTF-8 Plain Text
Duration                                 : 4 h 6 min
Bit rate                                 : 30 b/s
Count of elements                        : 1869
Stream size                              : 54.8 KiB (0%)
Title                                    : Türkçe - Filmbol.org
Language                                 : Turkish
Default                                  : No
Forced                                   : No

Text #2
ID                                       : 5
Format                                   : UTF-8
Codec ID                                 : S_TEXT/UTF8
Codec ID/Info                            : UTF-8 Plain Text
Duration                                 : 4 h 6 min
Bit rate                                 : 9 b/s
Count of elements                        : 532
Stream size                              : 17.3 KiB (0%)
Title                                    : Türkçe FORCED - Filmbol.org
Language                                 : Turkish
Default                                  : Yes
Forced                                   : Yes

Film Detayları


 Yüzüklerin Efendisi: Kralın Dönüşü

 Yüzüklerin Efendisi: Kralın Dönüşü

 Yüzüklerin Efendisi: Kralın Dönüşü


Film Fragmanı


Film Detayları

Uptobox ile indir

1Fichier ile indir

1Fichier'den İndiremiyor musun? Tıklayın!


Mega linki şuan da gizli. Kullanıma açmak için konuya yorum yapın ve ardından sayfayı yenileyin.

Mega


Bunun için üzgünüz ancak, bu linke sadece premium üyeler erişebilir.

Filmbol Cloud





Şuan Offine!
Şuan Offine!
Senfoni Yeni Üye
*
Üye

  • Konular0
  • Mesajlar1
  • Rep puanı 0
Teşekkür ederim,ne zamandır arıyordum.
Şuan Online!
Şuan Online!
BroserBros Kurucu Admin
*******
Admin

14.12.2019 Güncelleme Notu:

Linkler yenilendi. Kırık linkler kaldırıldı ve Genel Konu Düzenlemesi Yapıldı
Şuan Offine!
Şuan Offine!
Doan Bektash Yeni Üye
*
Üye

  • Konular0
  • Mesajlar5
  • Rep puanı 0
Selamün Aleyküm
Şuan Offine!
Şuan Offine!
Sinan Yeni Üye
*
Üye

  • Konular0
  • Mesajlar1
  • Rep puanı 0
İşte bu
Şuan Offine!
Şuan Offine!
necmet123 Yeni Üye
*
Üye

  • Konular0
  • Mesajlar2
  • Rep puanı 0
necmet
Şuan Offine!
Şuan Offine!
kizilkaya60 Yeni Üye
*
Üye

  • Konular0
  • Mesajlar1
  • Rep puanı 0
Teşekkürler
Şuan Offine!
Şuan Offine!
Fevzi4545 Yeni Üye
*
Üye

  • Konular0
  • Mesajlar1
  • Rep puanı 0
Kral indirme yapamiyorum
Şuan Offine!
Şuan Offine!
eferes38384545 Yeni Üye
*
Üye

  • Konular0
  • Mesajlar2
  • Rep puanı 0
cok iyi
Şuan Offine!
Şuan Offine!
thor Süper Üye
***
Super Üye

  • Konular0
  • Mesajlar34
  • Rep puanı 0
The lord of the rings


Hızlı Menü: