Filmbol Forum Film İndir 1080P v Yüzüklerin Efendisi: Kralın Dönüşü (The Lord of the Rings: The Return of the King) - 2003 - TR+ORG - 1080P | tt0167260
Mega linklerinin şikayet edilmemesi için global erişime kapatıp sadece yorum yapanlara açıyoruz. Bu linkleri gizleme işlemini mecburen yapıyoruz ve yorum yapmanızın siteye değil size faydası vardır. Teşekürler yazmayı çok görüp, Random/Spam mesajlar atarak Mega linklerini açmaya çalışan kullanıcılara önce süresiz ban, devam ederse IP ban atacağız.
Filmbol'da moderatör olmak ister misiniz? Bizimle iletişime geçmek için tıklayın!
Yüzüklerin Efendisi: Kralın Dönüşü (The Lord of the Rings: The Return of the King) - 2003 - TR+ORG - 1080P | tt0167260
BroserBros
Yüzüklerin Efendisi: Kralın Dönüşü (The Lord of the Rings: The Return of the King) - 2003 - TR+ORG - 1080P | tt0167260
14
5881
  • Derecelendirme: 0/5 - 0 oy
  • 1
  • 2
  • 3
  • 4
  • 5
Konuyu Okuyanlar:1 Ziyaretçi
Şuan Online!
Filmin Yayınlanma Tarihi: 2003 
WWW
Şuan Online!
BroserBros Kurucu Admin
*******
Admin



 Yüzüklerin Efendisi: Kralın Dönüşü



Gandalf ve Aragorn, Sauron’un ordusuna karşı Erkekler Dünyası’na önderlik ederek, Tek Yüzük ile Doom Dağı’na yaklaşırken Frodo ve Sam’ten bakışlarını çizmeye çalışırlar.

Yüzüklerin Efendisi: Kralın Dönüşü (2003) (The Lord of the Rings: The Return of the King) | tt0167260 Filmi Imdb'den 1,700,000 kişi tarafından oylandı ve 8,9 puan aldı. Bu film için editör puanı %95 olarak belirlendi. İyi Seyirler!

Teknik Detaylar

Kod :
General
Unique ID                                : 33846078392033688187630809062103562285 (0x197684809DC8385C2A312FE208D3B82D)
Complete name                            : /home/BroserBros/Desktop/5/Yüzüklerin.Efendisi.Kralın.Dönüşü.Extended.2003.1080p.BluRay.x264.TR.ENG.Filmbol.mkv
Format                                   : Matroska
Format version                           : Version 4
File size                                : 4.12 GiB
Duration                                 : 4 h 23 min
Overall bit rate                         : 2 239 kb/s
Movie name                               : Yüzüklerin Efendisi: Kralın Dönüşü - The Lord of the Rings: The Return of the King - 2003 | Filmbol.org
Encoded date                             : UTC 2021-04-26 14:32:45
Writing application                      : mkvmerge v53.0.0 ('Fool's Gold') 64-bit
Writing library                          : libebml v1.4.1 + libmatroska v1.6.2

Video
ID                                       : 1
Format                                   : AVC
Format/Info                              : Advanced Video Codec
Format profile                           : [email protected]
Format settings                          : CABAC / 5 Ref Frames
Format settings, CABAC                   : Yes
Format settings, Reference frames        : 5 frames
Codec ID                                 : V_MPEG4/ISO/AVC
Duration                                 : 4 h 23 min
Bit rate                                 : 1 917 kb/s
Width                                    : 1 920 pixels
Height                                   : 800 pixels
Display aspect ratio                     : 2.40:1
Frame rate mode                          : Constant
Frame rate                               : 23.976 (24000/1001) FPS
Color space                              : YUV
Chroma subsampling                       : 4:2:0
Bit depth                                : 8 bits
Scan type                                : Progressive
Bits/(Pixel*Frame)                       : 0.052
Stream size                              : 3.53 GiB (86%)
Title                                    : 1080P - Filmbol.org
Writing library                          : x264 core 120 r2164 da19765
Encoding settings                        : cabac=1 / ref=5 / deblock=1:0:0 / analyse=0x3:0x133 / me=umh / subme=9 / psy=1 / psy_rd=1.00:0.15 / mixed_ref=1 / me_range=16 / chroma_me=1 / trellis=2 / 8x8dct=1 / cqm=0 / deadzone=21,11 / fast_pskip=1 / chroma_qp_offset=-3 / threads=12 / sliced_threads=0 / nr=0 / decimate=1 / interlaced=0 / bluray_compat=0 / constrained_intra=0 / bframes=3 / b_pyramid=2 / b_adapt=2 / b_bias=0 / direct=3 / weightb=1 / open_gop=0 / weightp=2 / keyint=240 / keyint_min=23 / scenecut=40 / intra_refresh=0 / rc_lookahead=60 / rc=2pass / mbtree=1 / bitrate=1917 / ratetol=1.0 / qcomp=0.60 / qpmin=10 / qpmax=51 / qpstep=4 / cplxblur=20.0 / qblur=0.5 / ip_ratio=1.40 / aq=1:1.00
Default                                  : Yes
Forced                                   : No

Audio #1
ID                                       : 2
Format                                   : AC-3
Format/Info                              : Audio Coding 3
Commercial name                          : Dolby Digital
Codec ID                                 : A_AC3
Duration                                 : 4 h 23 min
Bit rate mode                            : Constant
Bit rate                                 : 224 kb/s
Channel(s)                               : 2 channels
Channel layout                           : L R
Sampling rate                            : 48.0 kHz
Frame rate                               : 31.250 FPS (1536 SPF)
Compression mode                         : Lossy
Stream size                              : 422 MiB (10%)
Title                                    : Türkçe - Filmbol.org
Language                                 : Turkish
Service kind                             : Complete Main
Default                                  : Yes
Forced                                   : No

Audio #2
ID                                       : 3
Format                                   : AAC LC
Format/Info                              : Advanced Audio Codec Low Complexity
Codec ID                                 : A_AAC-2
Duration                                 : 4 h 23 min
Bit rate                                 : 96.0 kb/s
Channel(s)                               : 2 channels
Channel layout                           : L R
Sampling rate                            : 48.0 kHz
Frame rate                               : 46.875 FPS (1024 SPF)
Compression mode                         : Lossy
Stream size                              : 181 MiB (4%)
Title                                    : Orjinal Dil - Filmbol.org
Language                                 : English
Default                                  : No
Forced                                   : No

Text #1
ID                                       : 4
Format                                   : UTF-8
Codec ID                                 : S_TEXT/UTF8
Codec ID/Info                            : UTF-8 Plain Text
Duration                                 : 4 h 6 min
Bit rate                                 : 30 b/s
Count of elements                        : 1869
Stream size                              : 54.8 KiB (0%)
Title                                    : Türkçe - Filmbol.org
Language                                 : Turkish
Default                                  : No
Forced                                   : No

Text #2
ID                                       : 5
Format                                   : UTF-8
Codec ID                                 : S_TEXT/UTF8
Codec ID/Info                            : UTF-8 Plain Text
Duration                                 : 4 h 6 min
Bit rate                                 : 9 b/s
Count of elements                        : 532
Stream size                              : 17.3 KiB (0%)
Title                                    : Türkçe FORCED - Filmbol.org
Language                                 : Turkish
Default                                  : Yes
Forced                                   : Yes

Film Detayları


 Yüzüklerin Efendisi: Kralın Dönüşü

 Yüzüklerin Efendisi: Kralın Dönüşü

 Yüzüklerin Efendisi: Kralın Dönüşü


Film Fragmanı


Film Detayları

Uptobox ile indir

1Fichier ile indir

1Fichier'den İndiremiyor musun? Tıklayın!


Mega linki şuan da gizli. Kullanıma açmak için konuya yorum yapın ve ardından sayfayı yenileyin.

Mega


Bunun için üzgünüz ancak, bu linke sadece premium üyeler erişebilir.

Filmbol Cloud





Şuan Offine!
Şuan Offine!
caner Süper Üye
***
Super Üye

  • Konular0
  • Mesajlar52
  • Rep puanı 0
teşekkürler
Şuan Offine!
Şuan Offine!
free Uzman Üye
**
Uzman Üye

  • Konular0
  • Mesajlar13
  • Rep puanı 0
for mega Idea
Şuan Offine!
Şuan Offine!
kexal Uzman Üye
**
Uzman Üye

  • Konular0
  • Mesajlar15
  • Rep puanı 0
Tartışmalı olmakla birlikte dünyanın en iyi filmi diyorum... Bu arada henüz indirmedim umarım kesilmiş sahnelerde dâhildir...
Şuan Offine!
Şuan Offine!
gfbmikail Yeni Üye
*
Üye

  • Konular0
  • Mesajlar2
  • Rep puanı 0
ellerinize sağlık
Şuan Online!
Şuan Online!
BroserBros Kurucu Admin
*******
Admin

14.12.2019 Güncelleme Notu:

Linkler yenilendi. Kırık linkler kaldırıldı ve Genel Konu Düzenlemesi Yapıldı
Şuan Offine!
Şuan Offine!
LNTBRFLMCN001 Uzman Üye
**
Uzman Üye

  • Konular0
  • Mesajlar10
  • Rep puanı 0
asdadsasd
Şuan Offine!
Şuan Offine!
Doan Bektash Yeni Üye
*
Üye

  • Konular0
  • Mesajlar5
  • Rep puanı 0
Selamün Aleyküm
Şuan Offine!
Şuan Offine!
esculope Yeni Üye
*
Üye

  • Konular0
  • Mesajlar2
  • Rep puanı 0
thxxx
Şuan Offine!
Şuan Offine!
Karsan68 Yeni Üye
*
Üye

  • Konular0
  • Mesajlar1
  • Rep puanı 0
Saolun


Hızlı Menü: