⤤ Premium'a Yükselt
Filmbol Forum Film İndir FHD - FULL HD v Tavşan Jojo (Jojo Rabbit) Türkçe Dublaj BLURAY FHD indir

Filmbol TV kullanıma açıldı. Bu adresten giriş yapabilirsin: Giriş





Tavşan Jojo (Jojo Rabbit) Türkçe Dublaj BLURAY FHD indir
BroserBros
Tavşan Jojo (Jojo Rabbit) Türkçe Dublaj BLURAY FHD indir
4
636
  • Derecelendirme: 0/5 - 0 oy
  • 1
  • 2
  • 3
  • 4
  • 5
Konuyu Okuyanlar:1 Ziyaretçi
Şuan Online!
Filmin Yayınlanma Tarihi: 2019 
WWW
Rapor Et!
Şuan Online!
BroserBros Kurucu Admin
*******
Admin



[süre]108 dakika[/süre]





 Tavşan Jojo



Jojo, hitleri daha önce hiç görmemiştir ancak aklında onun bir hayalini oluşturmuştur. Bu hayale göre hitler gayet efendi ve büyük bir liderdir ancak bir gün annesinin evlerinde bir yahudi kızı sakladığını öğrendiğinde hitleri görecektir ve onun gerçek kişiliğini. Jojo, bu durumdan sonra hayalindeki hitlerin çok farklı olduğunu anlar ve büyük bir hayal kırıklığına uğrayacaktır...

Tavşan Jojo (2019) (Jojo Rabbit) Filmi Imdb'den 170,000 kişi tarafından oylandı ve 8,0 puan aldı. Bu film için editör puanı 7,9 olarak belirlendi. İyi Seyirler!

Teknik Detaylar

Kod :
General
Unique ID                                : 119657468716678272265762004082884898973 (0x5A0530B169A6ADF7FD76DDEA2C44709D)
Complete name                            : /root/Desktop/4/Tavşan.Jojo.2019.1080p.BluRay.x264.TR.Filmbol.mkv
Format                                   : Matroska
Format version                           : Version 4 / Version 2
File size                                : 1.85 GiB
Duration                                 : 1h 48mn
Overall bit rate                         : 2 443 Kbps
Movie name                               : Tavşan Jojo (2019) - Filmbol.org
Encoded date                             : UTC 2020-03-19 12:15:51
Writing application                      : mkvmerge v35.0.0 ('All The Love In The World') 64-bit
Writing library                          : libebml v1.3.9 + libmatroska v1.5.2

Video
ID                                       : 1
Format                                   : AVC
Format/Info                              : Advanced Video Codec
Format profile                           : [email protected]
Format settings, CABAC                   : Yes
Format settings, ReFrames                : 4 frames
Codec ID                                 : V_MPEG4/ISO/AVC
Duration                                 : 1h 48mn
Bit rate                                 : 2 250 Kbps
Width                                    : 1 920 pixels
Height                                   : 1 024 pixels
Display aspect ratio                     : 1.85:1
Frame rate mode                          : Constant
Frame rate                               : 23.976 (24000/1001) fps
Color space                              : YUV
Chroma subsampling                       : 4:2:0
Bit depth                                : 8 bits
Scan type                                : Progressive
Bits/(Pixel*Frame)                       : 0.048
Stream size                              : 1.70 GiB (92%)
Title                                    : 1080P - Filmbol.org
Writing library                          : x264 core 158
Encoding settings                        : cabac=1 / ref=4 / deblock=1:-1:-1 / analyse=0x3:0x133 / me=umh / subme=9 / psy=1 / psy_rd=1.00:0.15 / mixed_ref=1 / me_range=24 / chroma_me=1 / trellis=2 / 8x8dct=1 / cqm=0 / deadzone=21,11 / fast_pskip=0 / chroma_qp_offset=-3 / threads=18 / lookahead_threads=1 / sliced_threads=0 / nr=0 / decimate=1 / interlaced=0 / bluray_compat=0 / constrained_intra=0 / bframes=3 / b_pyramid=2 / b_adapt=2 / b_bias=0 / direct=3 / weightb=1 / open_gop=0 / weightp=2 / keyint=250 / keyint_min=23 / scenecut=40 / intra_refresh=0 / rc_lookahead=60 / rc=2pass / mbtree=1 / bitrate=2250 / ratetol=1.0 / qcomp=0.60 / qpmin=0 / qpmax=69 / qpstep=4 / cplxblur=20.0 / qblur=0.5 / vbv_maxrate=31250 / vbv_bufsize=31250 / nal_hrd=none / filler=0 / ip_ratio=1.40 / aq=1:1.00
Default                                  : Yes
Forced                                   : No

Audio
ID                                       : 2
Format                                   : AC-3
Format/Info                              : Audio Coding 3
Mode extension                           : CM (complete main)
Format settings, Endianness              : Big
Codec ID                                 : A_AC3
Duration                                 : 1h 48mn
Bit rate mode                            : Constant
Bit rate                                 : 192 Kbps
Channel(s)                               : 2 channels
Channel positions                        : Front: L R
Sampling rate                            : 48.0 KHz
Frame rate                               : 31.250 fps (1536 spf)
Compression mode                         : Lossy
Stream size                              : 149 MiB (8%)
Title                                    : Türkçe - Filmbol.org
Language                                 : Turkish
Default                                  : Yes
Forced                                   : No

Film Detayları


 Tavşan Jojo

 Tavşan Jojo

 Tavşan Jojo


Film Fragmanı


Film İndir


Rar Şifresi: filmbol.org







Şuan Offine!
Rapor Et!
Şuan Offine!
ahmetyee1 Süper Üye
***
Super Üye
  • Konular2
  • Mesajlar75
  • Rep puanı 0
ya biz nasıl premium üye olabiliriz
Şuan Online!
Rapor Et!
Şuan Online!
BroserBros Kurucu Admin
*******
Admin
Merhaba @ahmetyee1, premium üyelik alımı başladı. Buradan bilgi alabilirsin.
Şuan Online!
Rapor Et!
Şuan Online!
Hannibal_King Premium Üye
****
  • Konular0
  • Mesajlar186
  • Rep puanı 3
Teşekkürler.
Şuan Offine!
Rapor Et!
Şuan Offine!
yozlasmis Üye
*
Üye
  • Konular0
  • Mesajlar68
  • Rep puanı 0
Teşekkürler.


Hızlı Menü: