⤤ Premium'a Yükselt
Filmbol Forum Film İndir 1080P v Armageddon (Armageddon) - 1998 - TR+ORG - 1080P | tt0120591

Filmbol TV kullanıma açıldı. Bu adresten giriş yapabilirsin: Giriş





Armageddon (Armageddon) - 1998 - TR+ORG - 1080P | tt0120591
BroserBros
Armageddon (Armageddon) - 1998 - TR+ORG - 1080P | tt0120591
4
687
  • Derecelendirme: 0/5 - 0 oy
  • 1
  • 2
  • 3
  • 4
  • 5
Konuyu Okuyanlar:1 Ziyaretçi
Şuan Online!
Filmin Yayınlanma Tarihi: 1998 
WWW
Rapor Et!
Şuan Online!
BroserBros Kurucu Admin
*******
Admin



 Armageddon



Milyonlarca yıl önce, bir meteor dünyada ki yaşamı %95 oranınında yok etti. Eğer bu tekrar gerçekleşirse, neler olurdu? Armageddon, bu konuyu bir film olarak ele alıyor ve bir gün dünyaya küçük meteor parçaları geldiği farkediliyor, bunun sebebini araştıran nasa ise dünyaya büyük bir meteor yaklaştığını farkeder…

Armageddon (1998) (Armageddon) | tt0120591 Filmi Imdb'den 400,000 kişi tarafından oylandı ve 6,7 puan aldı. Bu film için editör puanı %79 olarak belirlendi. İyi Seyirler!

Teknik Detaylar

Kod :
General
Unique ID                                : 20033418257691754036676847591930314520 (0xF124BC7620879394645ABEEB465BF18)
Complete name                            : /home/BroserBros/Desktop/4/Armageddon.1998.1080p.BluRay.x264.TR.ENG.mkv
Format                                   : Matroska
Format version                           : Version 4
File size                                : 2.21 GiB
Duration                                 : 2 h 30 min
Overall bit rate                         : 2 093 kb/s
Movie name                               : Armageddon - 1998 | Filmbol.org
Encoded date                             : UTC 2021-03-06 12:22:52
Writing application                      : mkvmerge v53.0.0 ('Fool's Gold') 64-bit
Writing library                          : libebml v1.4.1 + libmatroska v1.6.2

Video
ID                                       : 1
Format                                   : AVC
Format/Info                              : Advanced Video Codec
Format profile                           : [email protected]
Format settings                          : CABAC / 5 Ref Frames
Format settings, CABAC                   : Yes
Format settings, Reference frames        : 5 frames
Codec ID                                 : V_MPEG4/ISO/AVC
Duration                                 : 2 h 30 min
Bit rate                                 : 1 805 kb/s
Width                                    : 1 920 pixels
Height                                   : 800 pixels
Display aspect ratio                     : 2.40:1
Frame rate mode                          : Constant
Frame rate                               : 23.976 (24000/1001) FPS
Color space                              : YUV
Chroma subsampling                       : 4:2:0
Bit depth                                : 8 bits
Scan type                                : Progressive
Bits/(Pixel*Frame)                       : 0.049
Stream size                              : 1.90 GiB (86%)
Title                                    : 1080P - Filmbol.org
Writing library                          : x264 core 125 r2200 999b753
Encoding settings                        : cabac=1 / ref=5 / deblock=1:-1:-1 / analyse=0x3:0x133 / me=umh / subme=9 / psy=1 / psy_rd=1.00:0.15 / mixed_ref=1 / me_range=16 / chroma_me=1 / trellis=2 / 8x8dct=1 / cqm=0 / deadzone=21,11 / fast_pskip=1 / chroma_qp_offset=-3 / threads=12 / lookahead_threads=2 / sliced_threads=0 / nr=0 / decimate=1 / interlaced=0 / bluray_compat=0 / constrained_intra=0 / bframes=3 / b_pyramid=2 / b_adapt=2 / b_bias=0 / direct=3 / weightb=1 / open_gop=0 / weightp=2 / keyint=240 / keyint_min=23 / scenecut=40 / intra_refresh=0 / rc_lookahead=60 / rc=2pass / mbtree=1 / bitrate=1805 / ratetol=1.0 / qcomp=0.60 / qpmin=10 / qpmax=51 / qpstep=4 / cplxblur=20.0 / qblur=0.5 / ip_ratio=1.40 / aq=1:1.00
Default                                  : Yes
Forced                                   : No

Audio #1
ID                                       : 2
Format                                   : AC-3
Format/Info                              : Audio Coding 3
Commercial name                          : Dolby Digital
Codec ID                                 : A_AC3
Duration                                 : 2 h 30 min
Bit rate mode                            : Constant
Bit rate                                 : 192 kb/s
Channel(s)                               : 2 channels
Channel layout                           : L R
Sampling rate                            : 48.0 kHz
Frame rate                               : 31.250 FPS (1536 SPF)
Compression mode                         : Lossy
Delay relative to video                  : -83 ms
Stream size                              : 207 MiB (9%)
Title                                    : Türkçe - Filmbol.org
Language                                 : Turkish
Service kind                             : Complete Main
Default                                  : Yes
Forced                                   : No

Audio #2
ID                                       : 3
Format                                   : AAC LC
Format/Info                              : Advanced Audio Codec Low Complexity
Codec ID                                 : A_AAC-2
Duration                                 : 2 h 30 min
Bit rate                                 : 93.7 kb/s
Channel(s)                               : 2 channels
Channel layout                           : L R
Sampling rate                            : 44.1 kHz
Frame rate                               : 43.066 FPS (1024 SPF)
Compression mode                         : Lossy
Delay relative to video                  : -83 ms
Stream size                              : 101 MiB (4%)
Title                                    : Orjinal Dil - Filmbol.org
Language                                 : English
Default                                  : No
Forced                                   : No

Text
ID                                       : 4
Format                                   : UTF-8
Codec ID                                 : S_TEXT/UTF8
Codec ID/Info                            : UTF-8 Plain Text
Duration                                 : 2 h 22 min
Bit rate                                 : 78 b/s
Count of elements                        : 1972
Stream size                              : 81.8 KiB (0%)
Title                                    : Türkçe Altyazı - Filmbol.org
Default                                  : Yes
Forced                                   : No

Film Detayları


 Armageddon

 Armageddon

 Armageddon


Film Fragmanı


Film İndir


Rar Şifresi: filmbol.org


Uptobox ile indir

1Fichier ile indir

1Fichier'den İndiremiyor musun? Tıklayın!












Şuan Online!
Rapor Et!
Şuan Online!
BroserBros Kurucu Admin
*******
Admin
08.03.2021 Yönetici Notu:

Kırık linkler kontrol edildi, kaldırıldı ve yenilendi. Tüm linkler tamamen çalışır durumda.
Şuan Offine!
Rapor Et!
Şuan Offine!
Ugur_1988 Premium Üye
****
  • Konular12
  • Mesajlar96
  • Rep puanı 26
TEŞEKKÜRLER
Şuan Offine!
Rapor Et!
Şuan Offine!
desperat Üye
*
Üye
  • Konular0
  • Mesajlar11
  • Rep puanı 0
Teşekkürler.
Şuan Offine!
Rapor Et!
Şuan Offine!
ozgurtruva Üye
*
Üye
  • Konular0
  • Mesajlar23
  • Rep puanı 0
Teşekkürler.


Hızlı Menü: