⤤ Premium'a Yükselt

Merhaba, Ziyaretçi. Mega linklerinin bir kısmı deaktif halde ve yenileme çalışmalarına başladık. Bu süre içinde ikinci duyuruya kadar mega linklerini raporlamayın!! x

Filmbol Forum Film İndir BRRip XviD v VOL-i (WALL-E) - 2008 - TR - BRRip XviD | tt0910970

Filmbol TV kullanıma açıldı. Bu adresten giriş yapabilirsin: Giriş





VOL-i (WALL-E) - 2008 - TR - BRRip XviD | tt0910970
BroserBros
VOL-i (WALL-E) - 2008 - TR - BRRip XviD | tt0910970
14
1237
  • Derecelendirme: 0/5 - 0 oy
  • 1
  • 2
  • 3
  • 4
  • 5
Konuyu Okuyanlar:2 Ziyaretçi
Şuan Online!
Filmin Yayınlanma Tarihi: 2008 
WWW
Rapor Et!
Şuan Online!
BroserBros Kurucu Admin
*******
Admin



 VOL-i



İnsanlar dünyasına sahip çıkamamış ve dünya tamamı ile değişmiştir. Bir çöp yığınına dönen dünya da yaşanılacak hiç bir yer kalmamış ve insanlar uzaya kaçmıştır. Bu süre zarfında ise insanlar dönene kadar dünyanın temizleneceği söylenmiş, bu görev de bir takım robotlara verilmiştir. Ancak o gün hiç gelmeyebilir, çünkü robotlar bazı kişiler tarafından durdurulmuştur. VOL-i ise durdurulamayan bir robottur ve hala insanlık için mücadele verecektir...

VOL-i (2008) (WALL-E) | tt0910970 Filmi Imdb'den 1,000,000 kişi tarafından oylandı ve 8,4 puan aldı. Bu film için editör puanı %97 olarak belirlendi. İyi Seyirler!

Teknik Detaylar

Kod :
General
Complete name                            : /home/BroserBros/Desktop/3/Vol-i.2008.BRRip.XviD.TR.Filmbol.avi
Format                                   : AVI
Format/Info                              : Audio Video Interleave
File size                                : 703 MiB
Duration                                 : 1 h 38 min
Overall bit rate                         : 1 001 kb/s

Video
ID                                       : 0
Format                                   : MPEG-4 Visual
Format profile                           : Advanced [email protected]
Format settings                          : BVOP2
Format settings, BVOP                    : 2
Format settings, QPel                    : No
Format settings, GMC                     : No warppoints
Format settings, Matrix                  : Default (MPEG)
Codec ID                                 : XVID
Codec ID/Hint                            : XviD
Duration                                 : 1 h 38 min
Bit rate                                 : 860 kb/s
Width                                    : 656 pixels
Height                                   : 272 pixels
Display aspect ratio                     : 2.40:1
Frame rate                               : 23.976 (23976/1000) FPS
Color space                              : YUV
Chroma subsampling                       : 4:2:0
Bit depth                                : 8 bits
Scan type                                : Progressive
Compression mode                         : Lossy
Bits/(Pixel*Frame)                       : 0.201
Stream size                              : 604 MiB (86%)
Writing library                          : XviD 1.2.1 (UTC 2008-12-04)

Audio
ID                                       : 1
Format                                   : MPEG Audio
Format version                           : Version 1
Format profile                           : Layer 3
Format settings                          : Joint stereo / MS Stereo
Codec ID                                 : 55
Codec ID/Hint                            : MP3
Duration                                 : 1 h 38 min
Bit rate mode                            : Constant
Bit rate                                 : 128 kb/s
Channel(s)                               : 2 channels
Sampling rate                            : 48.0 kHz
Compression mode                         : Lossy
Stream size                              : 89.9 MiB (13%)
Alignment                                : Aligned on interleaves
Interleave, duration                     : 24  ms (0.58 video frame)

Film Detayları


 VOL-i

 VOL-i

 VOL-i


Film Fragmanı


Film İndir


Rar Şifresi: filmbol.org



Uptobox ile indir

1Fichier ile indir

1Fichier'den İndiremiyor musun? Tıklayın!












Şuan Offine!
Rapor Et!
Şuan Offine!
badboys755 Uzman Üye
**
Uzman Üye
  • Konular0
  • Mesajlar19
  • Rep puanı 0
sagolun
Şuan Offine!
Rapor Et!
Şuan Offine!
ercan Uzman Üye
**
Uzman Üye
  • Konular0
  • Mesajlar24
  • Rep puanı 0
teşekkürler...
Şuan Offine!
Rapor Et!
Şuan Offine!
Furkan61 Cezalı Üye
  • Konular0
  • Mesajlar288
güzel
Şuan Online!
Rapor Et!
Şuan Online!
BroserBros Kurucu Admin
*******
Admin
08.03.2021 Yönetici Notu:

Kırık linkler kontrol edildi, kaldırıldı ve yenilendi. Tüm linkler tamamen çalışır durumda.
Şuan Offine!
Rapor Et!
Şuan Offine!
nazzlıcannn Üye
*
Üye
  • Konular0
  • Mesajlar19
  • Rep puanı 0
bi de bunu alayım bu günlük yeterli teşekkrler.
Şuan Offine!
Rapor Et!
Şuan Offine!
Tarık Coşkun Üye
*
Üye
  • Konular0
  • Mesajlar19
  • Rep puanı 0
Teşekkürler
Şuan Offine!
Rapor Et!
Şuan Offine!
Benjamin005 Üye
*
Üye
  • Konular0
  • Mesajlar5
  • Rep puanı 0
Teşekkürler.
Şuan Offine!
Rapor Et!
Şuan Offine!
lnşnx Üye
*
Üye
  • Konular0
  • Mesajlar3
  • Rep puanı 0
Teşekkürler.
Şuan Offine!
Rapor Et!
Şuan Offine!
nazzlıcannn Üye
*
Üye
  • Konular0
  • Mesajlar19
  • Rep puanı 0
bu filme çocuklar bayıldı. yetişkinler bile izledi severek kesinlikle tavsiye ederim.


Hızlı Menü: