⤤ Premium'a Yükselt

Merhaba, Ziyaretçi. Mega linklerinin bir kısmı deaktif halde ve yenileme çalışmalarına başladık. Bu süre içinde ikinci duyuruya kadar mega linklerini raporlamayın!! x

Filmbol Forum Film İndir BRRip XviD v Hayatın Kıyısında (All the Bright Places) - 2020 - TR - BRRip XviD | tt3907584

Filmbol TV kullanıma açıldı. Bu adresten giriş yapabilirsin: Giriş





Hayatın Kıyısında (All the Bright Places) - 2020 - TR - BRRip XviD | tt3907584
BroserBros
Hayatın Kıyısında (All the Bright Places) - 2020 - TR - BRRip XviD | tt3907584
1
442
  • Derecelendirme: 0/5 - 0 oy
  • 1
  • 2
  • 3
  • 4
  • 5
Konuyu Okuyanlar:2 Ziyaretçi
Şuan Online!
WWW
Rapor Et!
Şuan Online!
BroserBros Kurucu Admin
*******
Admin



 Hayatın Kıyısında



Akıl hastası olan iki kişi, bir gün ölümsüzlüğe gidecek bir ilişki başlatırlar. Violet e Finch’i hikayesi diğer Romantik filmlerden biraz farklı. Tanışdıkça birbirlerini daha iyi tanıyan ve daha çok seven ikili aralarında mucizevi bir ilişki olduğunu farkeder ve mercekler tamamen ikilinin üzerine çevrilir… Romatik, Dram kategorisinde bulunan film eğer romantik bir film seviyorsanız hoşunuza gidebilir…

Hayatın Kıyısında (2020) (All the Bright Places) | tt3907584 Filmi Imdb'den 25,000 kişi tarafından oylandı ve 6,5 puan aldı. Bu film için editör puanı %62 olarak belirlendi. İyi Seyirler!

Teknik Detaylar

Kod :
General
Unique ID                                : 299152330741807127521782647005206161635 (0xE10EA4A6D8E9F39E2684450FA4BA28E3)
Complete name                            : /home/BroserBros/Desktop/1/Hayatın.Kıyısında.2020.BRRip.XviD.TR.Filmbol.avi
Format                                   : Matroska
Format version                           : Version 4
File size                                : 1.29 GiB
Duration                                 : 1 h 48 min
Overall bit rate                         : 1 700 kb/s
Movie name                               : Hayatın Kıyısında - All The Bright Places - 2020 | Filmbol.org
Encoded date                             : UTC 2021-05-24 17:41:44
Writing application                      : mkvmerge v53.0.0 ('Fool's Gold') 64-bit
Writing library                          : libebml v1.4.1 + libmatroska v1.6.2
FileExtension_Invalid                    : mkv mk3d mka mks

Video
ID                                       : 1
Format                                   : MPEG-4 Visual
Format profile                           : Advanced [email protected]
Format settings                          : BVOP2 / Custom Matrix
Format settings, BVOP                    : 2
Format settings, QPel                    : No
Format settings, GMC                     : No warppoints
Format settings, Matrix                  : Custom
Muxing mode                              : Packed bitstream
Codec ID                                 : V_MS/VFW/FOURCC / XVID
Codec ID/Hint                            : XviD
Duration                                 : 1 h 48 min
Bit rate                                 : 1 571 kb/s
Width                                    : 720 pixels
Height                                   : 304 pixels
Display aspect ratio                     : 2.35:1
Frame rate mode                          : Constant
Frame rate                               : 24.000 FPS
Color space                              : YUV
Chroma subsampling                       : 4:2:0
Bit depth                                : 8 bits
Scan type                                : Progressive
Compression mode                         : Lossy
Bits/(Pixel*Frame)                       : 0.299
Stream size                              : 1.19 GiB (92%)
Title                                    : Hayatın Kıyısında - All The Bright Places - 2020 | Filmbol.org
Writing library                          : XviD 1.2.1 (UTC 2008-12-04)
Default                                  : Yes
Forced                                   : No

Audio
ID                                       : 2
Format                                   : MPEG Audio
Format version                           : Version 1
Format profile                           : Layer 3
Format settings                          : Joint stereo / MS Stereo
Codec ID                                 : A_MPEG/L3
Codec ID/Hint                            : MP3
Duration                                 : 1 h 48 min
Bit rate mode                            : Constant
Bit rate                                 : 128 kb/s
Channel(s)                               : 2 channels
Sampling rate                            : 48.0 kHz
Frame rate                               : 41.667 FPS (1152 SPF)
Compression mode                         : Lossy
Stream size                              : 99.4 MiB (8%)
Title                                    : Hayatın Kıyısında - All The Bright Places - 2020 | Filmbol.org
Writing library                          : LAME3.100
Encoding settings                        : -m j -V 4 -q 2 -lowpass 17 -b 128
Default                                  : Yes
Forced                                   : No

Film Detayları


 Hayatın Kıyısında

 Hayatın Kıyısında

 Hayatın Kıyısında


Film Fragmanı


Film İndir


Rar Şifresi: filmbol.org



Uptobox ile indir

1Fichier ile indir

1Fichier'den İndiremiyor musun? Tıklayın!












Şuan Online!
Rapor Et!
Şuan Online!
BroserBros Kurucu Admin
*******
Admin
25.05.2021 Yönetici Notu:

Kırık linkler kontrol edildi, kaldırıldı ve yenilendi. Tüm linkler tamamen çalışır durumda.


Hızlı Menü: