⤤ Premium'a Yükselt
Filmbol Forum Film İndir BRRip XviD v Pi'nin Yaşamı (Life of Pi) - 2012 - TR - BRRip XviD | tt0454876

Filmbol TV kullanıma açıldı. Bu adresten giriş yapabilirsin: Giriş





Pi'nin Yaşamı (Life of Pi) - 2012 - TR - BRRip XviD | tt0454876
BroserBros
Pi'nin Yaşamı (Life of Pi) - 2012 - TR - BRRip XviD | tt0454876
7
906
  • Derecelendirme: 0/5 - 0 oy
  • 1
  • 2
  • 3
  • 4
  • 5
Konuyu Okuyanlar:2 Ziyaretçi
Şuan Online!
Filmin Yayınlanma Tarihi: 2012 
WWW
Rapor Et!
Şuan Online!
BroserBros Kurucu Admin
*******
Admin



 Pi'nin Yaşamı



Pi, ailesi ile sahibi oldukları hayvanat bahçesinde çalışmaktadır. Ailesi, Hindistan’da daha fazla kalamayacaklarına karar verirler ve hayvanları ile birlikte uçsuz bir yolculuğa çıkarlar. Ancak gemi ile yaptıkları bu yolculukta bir sorun oluşur ve gemi batar. Pi’nin ailesi gemi battıktan hemen sonra ölür, Pi tek kalmıştır ve küçük bir filika ile birlikte yanında bir zebra, bir sırtlan, bir orangutan ve bir kaplan kalırlar. Pi hem hayvanat bahçesinde öğrendikleri ile hemde kıvrak zekası ile hayatta kalmaya başarır ancak bu uçsuz bucaksız Okyanus’ta ne yapabilir ve daha fazla nasıl hayatta kalabilir ki?

Pi'nin Yaşamı (2012) (Life of Pi) | tt0454876 Filmi Imdb'den 600,000 kişi tarafından oylandı ve 7,9 puan aldı. Bu film için editör puanı %91 olarak belirlendi. İyi Seyirler!

Teknik Detaylar

Kod :
General
Unique ID                                : 257587951918593175587514472208156070136 (0xC1C9A28ECADDBE47FC9F4AFF00A010F8)
Complete name                            : /home/BroserBros/Desktop/5/Pinin.Yaşamı.2012.BRRip.XviD.TR.Filmbol.avi
Format                                   : Matroska
Format version                           : Version 4
File size                                : 909 MiB
Duration                                 : 2 h 6 min
Overall bit rate                         : 1 000 kb/s
Movie name                               : Pi'nin Yaşamı - Life of Pi - 2012 | Filmbol.org
Encoded date                             : UTC 2021-04-19 17:03:55
Writing application                      : mkvmerge v53.0.0 ('Fool's Gold') 64-bit
Writing library                          : libebml v1.4.1 + libmatroska v1.6.2
FileExtension_Invalid                    : mkv mk3d mka mks

Video
ID                                       : 1
Format                                   : MPEG-4 Visual
Format profile                           : Advanced [email protected]
Format settings                          : BVOP2
Format settings, BVOP                    : 2
Format settings, QPel                    : No
Format settings, GMC                     : No warppoints
Format settings, Matrix                  : Default (H.263)
Codec ID                                 : V_MS/VFW/FOURCC / DIVX
Codec ID/Info                            : Project Mayo
Codec ID/Hint                            : DivX 4
Duration                                 : 2 h 6 min
Bit rate                                 : 871 kb/s
Width                                    : 768 pixels
Height                                   : 412 pixels
Display aspect ratio                     : 1.85:1
Frame rate mode                          : Constant
Frame rate                               : 23.976 (24000/1001) FPS
Color space                              : YUV
Chroma subsampling                       : 4:2:0
Bit depth                                : 8 bits
Scan type                                : Progressive
Compression mode                         : Lossy
Bits/(Pixel*Frame)                       : 0.115
Stream size                              : 791 MiB (87%)
Title                                    : Pi'nin Yaşamı - Life of Pi - 2012 | Filmbol.org
Writing library                          : XviD 67
Default                                  : Yes
Forced                                   : No

Audio
ID                                       : 2
Format                                   : MPEG Audio
Format version                           : Version 1
Format profile                           : Layer 3
Codec ID                                 : A_MPEG/L3
Codec ID/Hint                            : MP3
Duration                                 : 2 h 6 min
Bit rate mode                            : Constant
Bit rate                                 : 128 kb/s
Channel(s)                               : 2 channels
Sampling rate                            : 48.0 kHz
Frame rate                               : 41.667 FPS (1152 SPF)
Compression mode                         : Lossy
Stream size                              : 116 MiB (13%)
Title                                    : Pi'nin Yaşamı - Life of Pi - 2012 | Filmbol.org
Writing library                          : LAME3.100UH6ApƒHI,
Default                                  : Yes
Forced                                   : No

Film Detayları


 Pi'nin Yaşamı

 Pi'nin Yaşamı

 Pi'nin Yaşamı


Film Fragmanı


Film İndir


Rar Şifresi: filmbol.org



Uptobox ile indir

1Fichier ile indir

1Fichier'den İndiremiyor musun? Tıklayın!












Şuan Offine!
Rapor Et!
Şuan Offine!
filmbolcu Süper Üye
***
Super Üye
  • Konular7
  • Mesajlar117
  • Rep puanı 2
Süpersiniz. Çok teşekkürler.
Şuan Offine!
Rapor Et!
Şuan Offine!
Nyx Ulric Uzman Üye
**
Uzman Üye
  • Konular0
  • Mesajlar8
  • Rep puanı 0
Teşekkürler.
Şuan Offine!
Rapor Et!
Şuan Offine!
filmbolcu Süper Üye
***
Super Üye
  • Konular7
  • Mesajlar117
  • Rep puanı 2
Hocam filmin sesinde senkron/kayma sorunu var; düzeltebilir misin?
Şuan Online!
Rapor Et!
Şuan Online!
BroserBros Kurucu Admin
*******
Admin
Kontrol ediyorum.

Edit: 2K-MS ses kayması var. Düzeltiyorum, bildirim için teşekkürler!
Şuan Online!
Rapor Et!
Şuan Online!
BroserBros Kurucu Admin
*******
Admin
Ses kayması düzeltildi. Linkler yenilendi
Şuan Offine!
Rapor Et!
Şuan Offine!
Furkan61 Cezalı Üye
  • Konular0
  • Mesajlar288
güzel
Şuan Online!
Rapor Et!
Şuan Online!
BroserBros Kurucu Admin
*******
Admin
22.04.2021 Yönetici Notu:

Kırık linkler kontrol edildi, kaldırıldı ve yenilendi. Tüm linkler tamamen çalışır durumda.


Hızlı Menü: