⤤ Premium'a Yükselt
Filmbol Forum Film İndir 1080P v İlkel (Primal) - 2019 - TR+ORG - 1080P | tt7394816

Filmbol TV kullanıma açıldı. Bu adresten giriş yapabilirsin: Giriş





İlkel (Primal) - 2019 - TR+ORG - 1080P | tt7394816
BroserBros
İlkel (Primal) - 2019 - TR+ORG - 1080P | tt7394816
5
637
  • Derecelendirme: 0/5 - 0 oy
  • 1
  • 2
  • 3
  • 4
  • 5
Konuyu Okuyanlar:2 Ziyaretçi
Şuan Online!
Filmin Yayınlanma Tarihi: 2019 
WWW
Rapor Et!
Şuan Online!
BroserBros Kurucu Admin
*******
Admin



 İlkel



Frank Walsh aslında bir hayvan tüccarıdır. Ancak işi sanıldığı gibi basit değildir çünkü Frank en nadide bulunur hayvanları avlar ve canlı/cansız satmaktadır. Yine güzel bir iş günü sonunda nadide bulunan bir Leopar ele geçirir. Bu hayatı boyunca yaptığı en iyi avlardan biridir ve onu ABD’ye götürüp yüklü bir miktara satmanın hayalini kurmaktadır. Gemi ile seyahati sırasında olmadık bir şey yaşanır ve gemide bulunan bütün hayvanlar bir kişi tarafından salıverilir…

İlkel (2019) (Primal) | tt7394816 Filmi Imdb'den 7,000 kişi tarafından oylandı ve 4,9 puan aldı. Bu film için editör puanı %59 olarak belirlendi. İyi Seyirler!

Teknik Detaylar

Kod :
General
Unique ID                                : 322339907986828867620152748053291869684 (0xF2806879A74FAE348FBDF43EFAA825F4)
Complete name                            : /home/BroserBros/Desktop/4/İlkel.2019.1080p.BluRay.x264.TR.ENG.Filmbol.mkv
Format                                   : Matroska
Format version                           : Version 4
File size                                : 1.68 GiB
Duration                                 : 1 h 36 min
Overall bit rate                         : 2 487 kb/s
Movie name                               : İlkel - Primal - 2019 | Filmbol.org
Encoded date                             : UTC 2021-05-27 07:22:24
Writing application                      : mkvmerge v53.0.0 ('Fool's Gold') 64-bit
Writing library                          : libebml v1.4.1 + libmatroska v1.6.2

Video
ID                                       : 1
Format                                   : AVC
Format/Info                              : Advanced Video Codec
Format profile                           : [email protected]
Format settings                          : CABAC / 4 Ref Frames
Format settings, CABAC                   : Yes
Format settings, Reference frames        : 4 frames
Codec ID                                 : V_MPEG4/ISO/AVC
Duration                                 : 1 h 36 min
Bit rate                                 : 2 100 kb/s
Width                                    : 1 920 pixels
Height                                   : 800 pixels
Display aspect ratio                     : 2.40:1
Frame rate mode                          : Constant
Frame rate                               : 23.976 (24000/1001) FPS
Color space                              : YUV
Chroma subsampling                       : 4:2:0
Bit depth                                : 8 bits
Scan type                                : Progressive
Bits/(Pixel*Frame)                       : 0.057
Stream size                              : 1.42 GiB (84%)
Title                                    : İlkel - Primal - 2019 | Filmbol.org
Writing library                          : x264 core 158
Encoding settings                        : cabac=1 / ref=4 / deblock=1:-1:-1 / analyse=0x3:0x133 / me=umh / subme=9 / psy=1 / psy_rd=1.00:0.15 / mixed_ref=1 / me_range=24 / chroma_me=1 / trellis=2 / 8x8dct=1 / cqm=0 / deadzone=21,11 / fast_pskip=0 / chroma_qp_offset=-3 / threads=12 / lookahead_threads=1 / sliced_threads=0 / nr=0 / decimate=1 / interlaced=0 / bluray_compat=0 / constrained_intra=0 / bframes=3 / b_pyramid=2 / b_adapt=2 / b_bias=0 / direct=3 / weightb=1 / open_gop=0 / weightp=2 / keyint=250 / keyint_min=23 / scenecut=40 / intra_refresh=0 / rc_lookahead=60 / rc=2pass / mbtree=1 / bitrate=2100 / ratetol=1.0 / qcomp=0.60 / qpmin=0 / qpmax=69 / qpstep=4 / cplxblur=20.0 / qblur=0.5 / vbv_maxrate=31250 / vbv_bufsize=31250 / nal_hrd=none / filler=0 / ip_ratio=1.40 / aq=1:1.00
Default                                  : Yes
Forced                                   : No

Audio #1
ID                                       : 2
Format                                   : AC-3
Format/Info                              : Audio Coding 3
Commercial name                          : Dolby Digital
Codec ID                                 : A_AC3
Duration                                 : 1 h 36 min
Bit rate mode                            : Constant
Bit rate                                 : 192 kb/s
Channel(s)                               : 2 channels
Channel layout                           : L R
Sampling rate                            : 48.0 kHz
Frame rate                               : 31.250 FPS (1536 SPF)
Compression mode                         : Lossy
Stream size                              : 133 MiB (8%)
Title                                    : İlkel - Primal - 2019 | Filmbol.org
Language                                 : Turkish
Service kind                             : Complete Main
Default                                  : Yes
Forced                                   : No

Audio #2
ID                                       : 3
Format                                   : AC-3
Format/Info                              : Audio Coding 3
Commercial name                          : Dolby Digital
Codec ID                                 : A_AC3
Duration                                 : 1 h 36 min
Bit rate mode                            : Constant
Bit rate                                 : 192 kb/s
Channel(s)                               : 2 channels
Channel layout                           : L R
Sampling rate                            : 48.0 kHz
Frame rate                               : 31.250 FPS (1536 SPF)
Compression mode                         : Lossy
Stream size                              : 133 MiB (8%)
Title                                    : İlkel - Primal - 2019 | Filmbol.org
Language                                 : English
Service kind                             : Complete Main
Default                                  : No
Forced                                   : No

Text
ID                                       : 4
Format                                   : UTF-8
Codec ID                                 : S_TEXT/UTF8
Codec ID/Info                            : UTF-8 Plain Text
Duration                                 : 1 h 29 min
Bit rate                                 : 50 b/s
Count of elements                        : 1172
Stream size                              : 33.0 KiB (0%)
Title                                    : İlkel - Primal - 2019 | Filmbol.org
Language                                 : Turkish
Default                                  : No
Forced                                   : No

Film Detayları


 İlkel

 İlkel

 İlkel


Film Fragmanı


Film İndir


Rar Şifresi: filmbol.org


Uptobox ile indir

1Fichier ile indir

1Fichier'den İndiremiyor musun? Tıklayın!












Şuan Offine!
Rapor Et!
Şuan Offine!
Murat94 Süper Üye
***
Super Üye
  • Konular0
  • Mesajlar34
  • Rep puanı 0
Elinize sağlık
Şuan Offine!
Rapor Et!
Şuan Offine!
ismahilo Uzman Üye
**
Uzman Üye
  • Konular0
  • Mesajlar15
  • Rep puanı 0
TEŞEKKÜRLER
Şuan Offine!
Rapor Et!
Şuan Offine!
aspirin4646 Uzman Üye
**
Uzman Üye
  • Konular0
  • Mesajlar10
  • Rep puanı 0
süper
Şuan Online!
Rapor Et!
Şuan Online!
BroserBros Kurucu Admin
*******
Admin
28.05.2021 Yönetici Notu:

Kırık linkler kontrol edildi, kaldırıldı ve yenilendi. Tüm linkler tamamen çalışır durumda.
Şuan Offine!
Rapor Et!
Şuan Offine!
SOLOTOF Üye
*
Üye
  • Konular0
  • Mesajlar113
  • Rep puanı 0
Teşekkürler.


Hızlı Menü: