Filmbol Forum Film İndir 720P v Galaksinin Koruyucuları 2 (Guardians of the Galaxy Vol. 2) - 2017 - TR+ORG - 720P | tt3896198

Premium Üyelik Al

Bildirimi Kapat
Mega linklerinin şikayet edilmemesi için global erişime kapatıp sadece yorum yapanlara açıyoruz. Bu linkleri gizleme işlemini mecburen yapıyoruz ve yorum yapmanızın siteye değil size faydası vardır. Teşekkürler yazmayı çok görüp, Random/Spam/Anlamsız mesajlar atarak forumu kirletip Mega linklerini açmaya çalışan kullanıcılara süresiz ban atacağız.


Galaksinin Koruyucuları 2 (Guardians of the Galaxy Vol. 2) - 2017 - TR+ORG - 720P | tt3896198
BroserBros
Galaksinin Koruyucuları 2 (Guardians of the Galaxy Vol. 2) - 2017 - TR+ORG - 720P | tt3896198
3
550
  • Derecelendirme: 0/5 - 0 oy
  • 1
  • 2
  • 3
  • 4
  • 5
Konuyu Okuyanlar:2 Ziyaretçi
Şuan Online!
Filmin Yayınlanma Tarihi: 2017 
WWW
Şuan Online!
BroserBros Kurucu Admin
*******
Admin



 Galaksinin Koruyucuları 2



“Galaksinin Koruyucuları 2” filminde ekip uzayın uzak noktalarına yolculuklar ederken bir yandan da galaksiyi korumak adına farklı maceralara atılıyor. Koruyucular, artık aileleri haline gelen ekipte birbirlerini düşmanlara karşı korumak için savaşırken, Starlord olan Peter Quill’in gizemli geçmişinin sırları da çözülmeye başlıyor. Eski düşmanlar yeni müttefiklere dönüşürken, hayranların klasik çizgi romanlardaki favori karakterleri kahramanlarımızın yardımına koşuyor.
James Gunn’ın yönetmenliğini yaptığı ve başrollerinde Chris Pratt, Vin Diesel ve Bradley Cooper gibi yıldız isimlerin yer aldığı 2014 yapımı Guardians of the Galaxy’nin devam filmi niteliğinde olan yapıt, bir kez daha Marvel’ın yapımcılığında izleyiciyle buluşacak. Başrollerdeki kadrosunun değişmediği yapımda yönetmen koltuğunu da bir kez daha Gunn üstleniyor.

Galaksinin Koruyucuları 2 (2017) (Guardians of the Galaxy Vol. 2) | tt3896198 Filmi Imdb'den 575,000 kişi tarafından oylandı ve 7,6 puan aldı. Bu film için editör puanı %89 olarak belirlendi. İyi Seyirler!

Teknik Detaylar

Kod :
General
Unique ID                                : 131445981201939838689167091546366626657 (0x62E3933B7F7E5B514E6BE3C5810B4B61)
Complete name                            : /home/BroserBros/Desktop/5/Galaksinin.Koruyucuları.2.2017.720p.BluRay.x264.TR.ENG.Filmbol.mkv
Format                                   : Matroska
Format version                           : Version 4
File size                                : 1.34 GiB
Duration                                 : 2 h 15 min
Overall bit rate                         : 1 409 kb/s
Movie name                               : Galaksinin Koruyucuları Vol 2 - Guardians of the Galaxy Vol 2 - 2017 | Filmbol.org
Encoded date                             : UTC 2021-03-09 13:09:53
Writing application                      : mkvmerge v53.0.0 ('Fool's Gold') 64-bit
Writing library                          : libebml v1.4.1 + libmatroska v1.6.2

Video
ID                                       : 1
Format                                   : AVC
Format/Info                              : Advanced Video Codec
Format profile                           : [email protected]
Format settings                          : CABAC / 4 Ref Frames
Format settings, CABAC                   : Yes
Format settings, Reference frames        : 4 frames
Codec ID                                 : V_MPEG4/ISO/AVC
Duration                                 : 2 h 15 min
Bit rate                                 : 900 kb/s
Width                                    : 1 280 pixels
Height                                   : 534 pixels
Display aspect ratio                     : 2.40:1
Original display aspect ratio            : 2.40:1
Frame rate mode                          : Constant
Frame rate                               : 23.976 (24000/1001) FPS
Color space                              : YUV
Chroma subsampling                       : 4:2:0
Bit depth                                : 8 bits
Scan type                                : Progressive
Bits/(Pixel*Frame)                       : 0.055
Stream size                              : 874 MiB (64%)
Title                                    : 720P - Filmbol.org
Writing library                          : x264 core 148
Encoding settings                        : cabac=1 / ref=4 / deblock=1:-1:-1 / analyse=0x3:0x133 / me=umh / subme=9 / psy=1 / psy_rd=1.00:0.15 / mixed_ref=1 / me_range=24 / chroma_me=1 / trellis=2 / 8x8dct=1 / cqm=0 / deadzone=21,11 / fast_pskip=0 / chroma_qp_offset=-3 / threads=12 / lookahead_threads=1 / sliced_threads=0 / nr=0 / decimate=1 / interlaced=0 / bluray_compat=0 / constrained_intra=0 / bframes=3 / b_pyramid=2 / b_adapt=2 / b_bias=0 / direct=3 / weightb=1 / open_gop=0 / weightp=2 / keyint=250 / keyint_min=23 / scenecut=40 / intra_refresh=0 / rc_lookahead=60 / rc=2pass / mbtree=1 / bitrate=900 / ratetol=1.0 / qcomp=0.60 / qpmin=0 / qpmax=69 / qpstep=4 / cplxblur=20.0 / qblur=0.5 / vbv_maxrate=31250 / vbv_bufsize=31250 / nal_hrd=none / filler=0 / ip_ratio=1.40 / aq=1:1.00
Default                                  : Yes
Forced                                   : No

Audio #1
ID                                       : 2
Format                                   : AC-3
Format/Info                              : Audio Coding 3
Commercial name                          : Dolby Digital
Codec ID                                 : A_AC3
Duration                                 : 2 h 15 min
Bit rate mode                            : Constant
Bit rate                                 : 384 kb/s
Channel(s)                               : 6 channels
Channel layout                           : L R C LFE Ls Rs
Sampling rate                            : 48.0 kHz
Frame rate                               : 31.250 FPS (1536 SPF)
Compression mode                         : Lossy
Delay relative to video                  : 957 ms
Stream size                              : 373 MiB (27%)
Title                                    : Türkçe - Filmbol.org
Language                                 : Turkish
Service kind                             : Complete Main
Default                                  : Yes
Forced                                   : No

Audio #2
ID                                       : 3
Format                                   : AAC LC
Format/Info                              : Advanced Audio Codec Low Complexity
Codec ID                                 : A_AAC-2
Duration                                 : 2 h 15 min
Bit rate                                 : 122 kb/s
Channel(s)                               : 2 channels
Channel layout                           : L R
Sampling rate                            : 48.0 kHz
Frame rate                               : 46.875 FPS (1024 SPF)
Compression mode                         : Lossy
Delay relative to video                  : -43 ms
Stream size                              : 119 MiB (9%)
Title                                    : Orjinal Dil - Filmbol.org
Language                                 : English
Default                                  : No
Forced                                   : No

Text
ID                                       : 4
Format                                   : UTF-8
Codec ID                                 : S_TEXT/UTF8
Codec ID/Info                            : UTF-8 Plain Text
Duration                                 : 2 h 14 min
Bit rate                                 : 49 b/s
Count of elements                        : 1314
Stream size                              : 49.2 KiB (0%)
Title                                    : Türkçe Altyazı - Filmbol.org
Language                                 : Turkish
Default                                  : No
Forced                                   : No

Film Detayları


 Galaksinin Koruyucuları 2

 Galaksinin Koruyucuları 2

 Galaksinin Koruyucuları 2


Film Fragmanı


Film Detayları

Uptobox ile indir

1Fichier ile indir

1Fichier'den İndiremiyor musun? Tıklayın!


Mega linki şuan da gizli. Kullanıma açmak için konuya yorum yapın ve ardından sayfayı yenileyin.

Mega


Bunun için üzgünüz ancak, bu linke sadece premium üyeler erişebilir.

Filmbol Cloud





Şuan Offine!
Şuan Offine!
agresif Süper Üye
***
Super Üye

  • Konular0
  • Mesajlar26
  • Rep puanı 0
teşekkürler
Şuan Online!
Şuan Online!
BroserBros Kurucu Admin
*******
Admin

12.03.2021 Yönetici Notu:

Kırık linkler kontrol edildi, kaldırıldı ve yenilendi. Tüm linkler tamamen çalışır durumda.
Şuan Offine!
Şuan Offine!
denizyesilova00 Süper Üye
***
Super Üye

  • Konular1
  • Mesajlar26
  • Rep puanı 0
emekleriniz icin tesekkurler


Hızlı Menü: