⤤ Premium'a Yükselt
Filmbol Forum Film İndir 1080P v Yükseltme (Upgrade) - 2018 - TR+ORG - 1080P | tt6499752

Filmbol TV kullanıma açıldı. Bu adresten giriş yapabilirsin: Giriş





Yükseltme (Upgrade) - 2018 - TR+ORG - 1080P | tt6499752
BroserBros
Yükseltme (Upgrade) - 2018 - TR+ORG - 1080P | tt6499752
21
1813
  • Derecelendirme: 0/5 - 0 oy
  • 1
  • 2
  • 3
  • 4
  • 5
Konuyu Okuyanlar:2 Ziyaretçi
Şuan Online!
Filmin Yayınlanma Tarihi: 2018 
WWW
Rapor Et!
Şuan Online!
BroserBros Kurucu Admin
*******
Admin



 Yükseltme



Eşiyle birlikteyken acımasızca saldırıya uğrayan Grey Trace, karısını saldırıda kaybetmenin yanı sıra belden aşağı da felç olmuştur. Günün birinde bir milyarder muciten bedenini geliştirecek deneysel bir tedavi teklifi alır. Tedavi için Trace’in bedenine STEM olarak adlandırılan yapay zeka implantı yerleştirilir. Tedavi ile insanüstü yetenekler kazanan Trace, karısını öldüren ve kendi hayatını mahveden kişilerden intikam almak için yola koyulur…

Yükseltme (2018) (Upgrade) | tt6499752 Filmi Imdb'den 170,000 kişi tarafından oylandı ve 7,5 puan aldı. Bu film için editör puanı %91 olarak belirlendi. İyi Seyirler!

Teknik Detaylar

Kod :
General
Unique ID                                : 173768649791887536874842884534769312705 (0x82BA9FE5FB5613E73E8528DE4B0063C1)
Complete name                            : /home/BroserBros/Desktop/8/Yükseltme.2018.1080p.BluRay.x264.TR.ENG.Filmbol.mkv
Format                                   : Matroska
Format version                           : Version 4
File size                                : 1.87 GiB
Duration                                 : 1 h 39 min
Overall bit rate                         : 2 681 kb/s
Movie name                               : Yükseltme - Upgrade - 2018 | Filmbol.org
Encoded date                             : UTC 2021-06-06 12:37:27
Writing application                      : mkvmerge v53.0.0 ('Fool's Gold') 64-bit
Writing library                          : libebml v1.4.1 + libmatroska v1.6.2

Video
ID                                       : 1
Format                                   : AVC
Format/Info                              : Advanced Video Codec
Format profile                           : [email protected]
Format settings                          : CABAC / 4 Ref Frames
Format settings, CABAC                   : Yes
Format settings, Reference frames        : 4 frames
Codec ID                                 : V_MPEG4/ISO/AVC
Duration                                 : 1 h 39 min
Bit rate                                 : 2 150 kb/s
Width                                    : 1 920 pixels
Height                                   : 800 pixels
Display aspect ratio                     : 2.40:1
Frame rate mode                          : Constant
Frame rate                               : 23.976 (24000/1001) FPS
Color space                              : YUV
Chroma subsampling                       : 4:2:0
Bit depth                                : 8 bits
Scan type                                : Progressive
Bits/(Pixel*Frame)                       : 0.058
Stream size                              : 1.50 GiB (80%)
Title                                    : 1080P - Filmbol.org
Writing library                          : x264 core 152
Encoding settings                        : cabac=1 / ref=4 / deblock=1:-1:-1 / analyse=0x3:0x133 / me=umh / subme=9 / psy=1 / psy_rd=1.00:0.15 / mixed_ref=1 / me_range=24 / chroma_me=1 / trellis=2 / 8x8dct=1 / cqm=0 / deadzone=21,11 / fast_pskip=0 / chroma_qp_offset=-3 / threads=12 / lookahead_threads=1 / sliced_threads=0 / nr=0 / decimate=1 / interlaced=0 / bluray_compat=0 / constrained_intra=0 / bframes=3 / b_pyramid=2 / b_adapt=2 / b_bias=0 / direct=3 / weightb=1 / open_gop=0 / weightp=2 / keyint=250 / keyint_min=23 / scenecut=40 / intra_refresh=0 / rc_lookahead=60 / rc=2pass / mbtree=1 / bitrate=2150 / ratetol=1.0 / qcomp=0.60 / qpmin=0 / qpmax=69 / qpstep=4 / cplxblur=20.0 / qblur=0.5 / vbv_maxrate=31250 / vbv_bufsize=31250 / nal_hrd=none / filler=0 / ip_ratio=1.40 / aq=1:1.00
Default                                  : Yes
Forced                                   : No

Audio #1
ID                                       : 2
Format                                   : AC-3
Format/Info                              : Audio Coding 3
Commercial name                          : Dolby Digital
Codec ID                                 : A_AC3
Duration                                 : 1 h 39 min
Bit rate mode                            : Constant
Bit rate                                 : 384 kb/s
Channel(s)                               : 2 channels
Channel layout                           : L R
Sampling rate                            : 48.0 kHz
Frame rate                               : 31.250 FPS (1536 SPF)
Compression mode                         : Lossy
Stream size                              : 274 MiB (14%)
Title                                    : Türkçe - Filmbol.org
Language                                 : Turkish
Service kind                             : Complete Main
Default                                  : Yes
Forced                                   : No

Audio #2
ID                                       : 3
Format                                   : AAC LC
Format/Info                              : Advanced Audio Codec Low Complexity
Codec ID                                 : A_AAC-2
Duration                                 : 1 h 39 min
Bit rate                                 : 144 kb/s
Channel(s)                               : 2 channels
Channel layout                           : L R
Sampling rate                            : 48.0 kHz
Frame rate                               : 46.875 FPS (1024 SPF)
Compression mode                         : Lossy
Stream size                              : 104 MiB (5%)
Title                                    : Orijinal Dil - Filmbol.org
Language                                 : English
Default                                  : No
Forced                                   : No

Text
ID                                       : 4
Format                                   : UTF-8
Codec ID                                 : S_TEXT/UTF8
Codec ID/Info                            : UTF-8 Plain Text
Duration                                 : 1 h 33 min
Bit rate                                 : 47 b/s
Count of elements                        : 998
Stream size                              : 32.5 KiB (0%)
Title                                    : Türkçe - Filmbol.org
Language                                 : Turkish
Default                                  : No
Forced                                   : No

Film Detayları


 Yükseltme

 Yükseltme

 Yükseltme


Film Fragmanı


Film İndir


Rar Şifresi: filmbol.org


Uptobox ile indir

1Fichier ile indir

1Fichier'den İndiremiyor musun? Tıklayın!












Şuan Offine!
Rapor Et!
Şuan Offine!
cetin21 Üye
*
Üye
  • Konular0
  • Mesajlar4
  • Rep puanı 0
teşekkürler
Şuan Offine!
Rapor Et!
Şuan Offine!
safaksahin Üye
*
Üye
  • Konular0
  • Mesajlar2
  • Rep puanı 0
İzleyeceğiz bakalım
Şuan Offine!
Rapor Et!
Şuan Offine!
dangerlee Üye
*
Üye
  • Konular0
  • Mesajlar4
  • Rep puanı 0
Tesekkurler
Şuan Offine!
Rapor Et!
Şuan Offine!
osmaniye80 Üye
*
Üye
  • Konular0
  • Mesajlar2
  • Rep puanı 0
süper
Şuan Offine!
Rapor Et!
Şuan Offine!
sadred Cezalı Üye
  • Konular0
  • Mesajlar6
sdfsdfsdfsdf
Şuan Offine!
Rapor Et!
Şuan Offine!
Mehmet Yöney Uzman Üye
**
Uzman Üye
  • Konular0
  • Mesajlar29
  • Rep puanı 0
teşekkürler
Şuan Offine!
Rapor Et!
Şuan Offine!
hakan8444 Uzman Üye
**
Uzman Üye
  • Konular0
  • Mesajlar11
  • Rep puanı 0
Teşekkürler.
Şuan Offine!
Rapor Et!
Şuan Offine!
arpaz76 Üye
*
Üye
  • Konular0
  • Mesajlar5
  • Rep puanı 0
Teşekkür ederim
Şuan Offine!
Rapor Et!
Şuan Offine!
cankerimoglu Üye
*
Üye
  • Konular0
  • Mesajlar2
  • Rep puanı 0
emek için teşekkürler admin


Hızlı Menü: