Filmbol Forum Film İndir BRRip XviD v O Bölüm 2 (It Chapter Two) - 2019 - TR - BRRip XviD | tt7349950
Mega linklerinin şikayet edilmemesi için global erişime kapatıp sadece yorum yapanlara açıyoruz. Bu linkleri gizleme işlemini mecburen yapıyoruz ve yorum yapmanızın siteye değil size faydası vardır. Teşekürler yazmayı çok görüp, Random/Spam mesajlar atarak Mega linklerini açmaya çalışan kullanıcılara önce süresiz ban, devam ederse IP ban atacağız.
Filmbol'da moderatör olmak ister misiniz? Bizimle iletişime geçmek için tıklayın!
O Bölüm 2 (It Chapter Two) - 2019 - TR - BRRip XviD | tt7349950
BroserBros
O Bölüm 2 (It Chapter Two) - 2019 - TR - BRRip XviD | tt7349950
6
1116
  • Derecelendirme: 0/5 - 0 oy
  • 1
  • 2
  • 3
  • 4
  • 5
Konuyu Okuyanlar:1 Ziyaretçi
Şuan Online!
Filmin Yayınlanma Tarihi: 2019 
WWW
Şuan Online!
BroserBros Kurucu Admin
*******
Admin



 O Bölüm 2



O Bölüm 2, seytan palyaçonun geri dönmesi ile yirmi yedi yıl sonra yeniden bir araya gelen Ezikler Kulübü üyelerinin hikayesini konu ediyor. Aldığı yenilginin üzerinden geçen yirmi yedi yılın ardından Pennywise, Derry kasabasına geri döner. Ezikler Kulübü’nün üyelerinin her biri bir yana savrulmuş, sadece Mike kasabada yaşamını sürdürmeye devam etmektedir. Mike, tıpkı yıllar önce olduğu gibi insanların ortadan kaybolmaya başlaması sonucu arkadaşlarını kasabaya çağırmaya karar verir. Pennywise’ın geri dönüşü sebebiyle, çocukken söz verdikleri gibi kasabaya geri dönen yetişkinler bir kez daha şeytani palyaço ile karşı karşıyadır. Ancak yıllar sonra bir araya gelen ekibin birbirlerini yeniden tanımaları da bir hayli zor olur. Artık evli bir adam olan Bill ve sevgilisinden şiddet gören Beverly başta olmak üzere, tanıştıklarından bambaşka hayatlar yaşayan eski arkadaşlar, bir kez daha el ele vermek zorunda kalır.

O Bölüm 2 (2019) (It Chapter Two) | tt7349950 Filmi Imdb'den 210,000 kişi tarafından oylandı ve 6,5 puan aldı. Bu film için editör puanı %79 olarak belirlendi. İyi Seyirler!

Teknik Detaylar

Kod :
General
Unique ID                                : 207295496860976963152961397077732117468 (0x9BF3A914D4F3266268CB4E6F71924BDC)
Complete name                            : /home/BroserBros/Desktop/1/O.Bölüm.2.2019.BRRip.XviD.TR.ENG.Filmbol.avi
Format                                   : Matroska
Format version                           : Version 4
File size                                : 1.99 GiB
Duration                                 : 2 h 49 min
Overall bit rate                         : 1 678 kb/s
Movie name                               : O: Bölüm 2 - İt: Chapter Two - 2019 | Filmbol.org
Encoded date                             : UTC 2021-04-05 17:03:12
Writing application                      : mkvmerge v53.0.0 ('Fool's Gold') 64-bit
Writing library                          : libebml v1.4.1 + libmatroska v1.6.2
FileExtension_Invalid                    : mkv mk3d mka mks

Video
ID                                       : 1
Format                                   : MPEG-4 Visual
Format profile                           : Advanced [email protected]
Format settings                          : BVOP2 / Custom Matrix
Format settings, BVOP                    : 2
Format settings, QPel                    : No
Format settings, GMC                     : No warppoints
Format settings, Matrix                  : Custom
Muxing mode                              : Packed bitstream
Codec ID                                 : V_MS/VFW/FOURCC / XVID
Codec ID/Hint                            : XviD
Duration                                 : 2 h 49 min
Bit rate                                 : 1 549 kb/s
Width                                    : 720 pixels
Height                                   : 304 pixels
Display aspect ratio                     : 2.35:1
Frame rate mode                          : Constant
Frame rate                               : 23.976 (24000/1001) FPS
Color space                              : YUV
Chroma subsampling                       : 4:2:0
Bit depth                                : 8 bits
Scan type                                : Progressive
Compression mode                         : Lossy
Bits/(Pixel*Frame)                       : 0.295
Stream size                              : 1.83 GiB (92%)
Title                                    : O: Bölüm 2 - İt: Chapter Two - 2019 | Filmbol.org
Writing library                          : XviD 1.2.1 (UTC 2008-12-04)
Default                                  : Yes
Forced                                   : No

Audio
ID                                       : 2
Format                                   : MPEG Audio
Format version                           : Version 1
Format profile                           : Layer 3
Format settings                          : Joint stereo / MS Stereo
Codec ID                                 : A_MPEG/L3
Codec ID/Hint                            : MP3
Duration                                 : 2 h 48 min
Bit rate mode                            : Constant
Bit rate                                 : 128 kb/s
Channel(s)                               : 2 channels
Sampling rate                            : 48.0 kHz
Frame rate                               : 41.667 FPS (1152 SPF)
Compression mode                         : Lossy
Stream size                              : 154 MiB (8%)
Title                                    : O: Bölüm 2 - İt: Chapter Two - 2019 | Filmbol.org
Writing library                          : LAME3.100
Encoding settings                        : -m j -V 4 -q 2 -lowpass 17 -b 128
Default                                  : Yes
Forced                                   : No

Film Detayları


 O Bölüm 2

 O Bölüm 2

 O Bölüm 2


Film Fragmanı


Film Detayları


Uptobox ile indir

1Fichier ile indir

1Fichier'den İndiremiyor musun? Tıklayın!


Mega linki şuan da gizli. Kullanıma açmak için konuya yorum yapın ve ardından sayfayı yenileyin.

Mega


Bunun için üzgünüz ancak, bu linke sadece premium üyeler erişebilir.

Filmbol Cloud





Şuan Offine!
Şuan Offine!
komador06 Süper Üye
***
Super Üye

  • Konular0
  • Mesajlar28
  • Rep puanı 0
teşekkürler..
Şuan Offine!
Şuan Offine!
kartal Uzman Üye
**
Uzman Üye

  • Konular0
  • Mesajlar21
  • Rep puanı 0
Teşekkürler...
Şuan Offine!
Şuan Offine!
trend123 Yeni Üye
*
Üye

  • Konular0
  • Mesajlar5
  • Rep puanı 0
hawagi
Şuan Offine!
Şuan Offine!
Mustafa459 Yeni Üye
*
Üye

  • Konular0
  • Mesajlar1
  • Rep puanı 0
Cok guzel ;)
Şuan Online!
Şuan Online!
Furkan61 Süper Üye
***
Super Üye

  • Konular0
  • Mesajlar184
  • Rep puanı 1
güzel
Şuan Online!
Şuan Online!
BroserBros Kurucu Admin
*******
Admin

06.04.2021 Yönetici Notu:

Kırık linkler kontrol edildi, kaldırıldı ve yenilendi. Tüm linkler tamamen çalışır durumda. @Furkan61


Konu ile Alakalı Benzer Konular
Konular Yazar Yorumlar Okunma Son Yorum
Filmin Yayınlanma Tarihi: 2021
Yıldırım Gücü (Thunder Force) - 2021 - TR - BRRip XviD | tt10121392 TheSteeL 0 7 6 saat önce
Son Yorum: TheSteeL
Filmin Yayınlanma Tarihi: 2019
47 Metre Derinde: Kafes (47 Meters Down: Uncaged) - 2019 - TR - BRRip XviD BroserBros 2 99 8 saat önce
Son Yorum: ömerk
Filmin Yayınlanma Tarihi: 2020
Kadaver (Cadaver) - 2020 - TR - BRRip XviD BroserBros 1 78 8 saat önce
Son Yorum: ömerk
Filmin Yayınlanma Tarihi: 2006
Arabalar (Cars) - 2006 - TR - BRRip XviD BroserBros 4 352 , Saat: 02:36
Son Yorum: paboo
Filmin Yayınlanma Tarihi: 2020
Dipte (Breaking Surface) - 2020 - TR - BRRip XviD | tt10081762 TheSteeL 3 68 , Saat: 02:15
Son Yorum: TheSteeL

Hızlı Menü: