Filmbol Forum Film İndir 1080P v Annabelle 3 (Annabelle Comes Home) Türkçe Dublaj BLURAY m1080P İndir
Mega linklerinin şikayet edilmemesi için global erişime kapatıp sadece yorum yapanlara açıyoruz. Bu linkleri gizleme işlemini mecburen yapıyoruz ve yorum yapmanızın siteye değil size faydası vardır. Teşekürler yazmayı çok görüp, Random/Spam mesajlar atarak Mega linklerini açmaya çalışan kullanıcılara önce süresiz ban, devam ederse IP ban atacağız.
Filmbol'da moderatör olmak ister misiniz? Bizimle iletişime geçmek için tıklayın!
Annabelle 3 (Annabelle Comes Home) Türkçe Dublaj BLURAY m1080P İndir
BroserBros
Annabelle 3 (Annabelle Comes Home) Türkçe Dublaj BLURAY m1080P İndir
18
2000
  • Derecelendirme: 0/5 - 0 oy
  • 1
  • 2
  • 3
  • 4
  • 5
Konuyu Okuyanlar:1 Ziyaretçi
Şuan Online!
Filmin Yayınlanma Tarihi: 2019 
WWW
Şuan Online!
BroserBros Kurucu Admin
*******
Admin





Ses Kodek: AC3


Audio Coding 3 (AC3)






Annabelle 3



Teknik Detaylar


Kod :
General
Complete name                            : Annabelle.3.2019.m1080p.BLURAY.x264.TR.Filmbol.mkv
Format                                   : Matroska
Format version                           : Version 4 / Version 2
File size                                : 1.84 GiB
Duration                                 : 1h 46mn
Overall bit rate                         : 2 486 Kbps
Movie name                               : Annabelle 3 (2019) - Filmbol.org
Encoded date                             : UTC 2019-11-09 23:53:47
Writing application                      : mkvmerge v35.0.0 ('All The Love In The World') 64-bit
Writing library                          : libebml v1.3.9 + libmatroska v1.5.2

Video
ID                                       : 1
Format                                   : AVC
Format/Info                              : Advanced Video Codec
Format profile                           : [email protected]
Format settings, CABAC                   : Yes
Format settings, ReFrames                : 4 frames
Codec ID                                 : V_MPEG4/ISO/AVC
Duration                                 : 1h 46mn
Bit rate                                 : 2 100 Kbps
Width                                    : 1 920 pixels
Height                                   : 800 pixels
Display aspect ratio                     : 2.40:1
Frame rate mode                          : Constant
Frame rate                               : 23.976 (24000/1001) fps
Color space                              : YUV
Chroma subsampling                       : 4:2:0
Bit depth                                : 8 bits
Scan type                                : Progressive
Bits/(Pixel*Frame)                       : 0.057
Stream size                              : 1.56 GiB (84%)
Title                                    : 1080P - Filmbol.org
Writing library                          : x264 core 152
Default                                  : Yes
Forced                                   : No

Audio
ID                                       : 2
Format                                   : AC-3
Format/Info                              : Audio Coding 3
Mode extension                           : CM (complete main)
Format settings, Endianness              : Big
Codec ID                                 : A_AC3
Duration                                 : 1h 46mn
Bit rate mode                            : Constant
Bit rate                                 : 384 Kbps
Channel(s)                               : 6 channels
Channel positions                        : Front: L C R, Side: L R, LFE
Sampling rate                            : 48.0 KHz
Frame rate                               : 31.250 fps (1536 spf)
Compression mode                         : Lossy
Stream size                              : 291 MiB (15%)
Title                                    : Türke - Filmbol.org
Language                                 : Turkish
Default                                  : Yes
Forced                                   : No

Text
ID                                       : 3
Format                                   : UTF-8
Codec ID                                 : S_TEXT/UTF8
Codec ID/Info                            : UTF-8 Plain Text
Duration                                 : 1h 37mn
Bit rate                                 : 1 bps
Count of elements                        : 30
Stream size                              : 979 Bytes (0%)
Title                                    : KISIM
Language                                 : Turkish
Default                                  : Yes
Forced                                   : Yes

Film Detayları


Annabelle 3

Annabelle 3

Annabelle 3


Film Fragmanı


Film Detayları

Mini 1080P İndir


Uptobox ile indir

b2pp
Mega linki şuan da gizli. Kullanıma açmak için konuya yorum yapın ve ardından sayfayı yenileyin.

Mega


MediaFire ile indir

Google Drive linki şuan da gizli. Kullanıma açmak için konuya yorum yapın ve ardından sayfayı yenileyin.

Google Drive

Şuan Offine!
Şuan Offine!
yuso2132 Yeni Üye
*
Üye

  • Konular0
  • Mesajlar4
  • Rep puanı 0
Nice !
Şuan Offine!
Şuan Offine!
aarzolu Yeni Üye
*
Üye

  • Konular0
  • Mesajlar2
  • Rep puanı 0
mis gibi
Şuan Offine!
Şuan Offine!
ORHun Süper Üye
***
Super Üye

  • Konular0
  • Mesajlar31
  • Rep puanı 0
++++++++++++++++++++++++++++++
Şuan Offine!
Şuan Offine!
bilalsapoglu61 Yeni Üye
*
Üye

  • Konular0
  • Mesajlar2
  • Rep puanı 0
Smile Smile Smile
Şuan Offine!
Şuan Offine!
FROOBLE Yeni Üye
*
Üye

  • Konular0
  • Mesajlar5
  • Rep puanı 0
Teşekkürlerr
Şuan Offine!
Şuan Offine!
emre_3434 Süper Üye
***
Super Üye

  • Konular5
  • Mesajlar54
  • Rep puanı 5
Paylaşım için teşekkürler.
Şuan Offine!
Şuan Offine!
tuncay777 Uzman Üye
**
Uzman Üye

  • Konular0
  • Mesajlar6
  • Rep puanı 0
Superrr gercekten
Şuan Offine!
Şuan Offine!
Beratkahreman Yeni Üye
*
Üye

  • Konular0
  • Mesajlar4
  • Rep puanı 0
Güzel galiba
Şuan Offine!
Şuan Offine!
sesdee Yeni Üye
*
Üye

  • Konular0
  • Mesajlar1
  • Rep puanı 0
it's very good.


Konu ile Alakalı Benzer Konular
Konular Yazar Yorumlar Okunma Son Yorum
Filmin Yayınlanma Tarihi: 2016
Jack Reacher: Asla Geri Dönme (J.R: Never Go Back) Türkçe Dublaj m1080P İndir BroserBros 6 2,301 8 saat önce
Son Yorum: Erenio0
Filmin Yayınlanma Tarihi: 2019
Godzilla 2: Canavarlar Kralı (King of the Monsters) Türkçe Dublaj BLURAY m1080P İndir BroserBros 32 2,442 , Saat: 19:05
Son Yorum: FCBTZR
Filmin Yayınlanma Tarihi: 2016
Kung Fu Panda 3 Türkçe Dublaj m1080P İndir BroserBros 16 7,461 , Saat: 09:32
Son Yorum: metlebision
Filmin Yayınlanma Tarihi: 2014
Godzilla (Godzilla) Türkçe Dublaj 1080P İndir BroserBros 5 2,068 , Saat: 01:35
Son Yorum: FCBTZR
Filmin Yayınlanma Tarihi: 2005
Harry Potter ve Ateş Kadehi (Goblet of Fire) Türkçe Dublaj BLURAY 1080P İndir BroserBros 31 3,128 09-04-2021, Saat: 23:56
Son Yorum: axpell

Hızlı Menü: