Filmbol Forum Film İndir 1080P v Mogli: Orman Çocuğu (Mowgli) Türkçe Dublaj BLURAY 1080P İndir
Mega linklerinin şikayet edilmemesi için global erişime kapatıp sadece yorum yapanlara açıyoruz. Bu linkleri gizleme işlemini mecburen yapıyoruz ve yorum yapmanızın siteye değil size faydası vardır. Teşekürler yazmayı çok görüp, Random/Spam mesajlar atarak Mega linklerini açmaya çalışan kullanıcılara önce süresiz ban, devam ederse IP ban atacağız.
Filmbol'da moderatör olmak ister misiniz? Bizimle iletişime geçmek için tıklayın!
Mogli: Orman Çocuğu (Mowgli) Türkçe Dublaj BLURAY 1080P İndir
BroserBros
Mogli: Orman Çocuğu (Mowgli) Türkçe Dublaj BLURAY 1080P İndir
11
1126
  • Derecelendirme: 0/5 - 0 oy
  • 1
  • 2
  • 3
  • 4
  • 5
Konuyu Okuyanlar:1 Ziyaretçi
Şuan Online!
Filmin Yayınlanma Tarihi: 2018 
WWW
Şuan Online!
BroserBros Kurucu Admin
*******
Admin





Ses Kodek: AC3


Audio Coding 3 (AC3)






Mogli



Teknik Detaylar

Kod :
General
Complete name                            : Mogli.Orman.Çocugu.2018.m1080p.NF.WEB-DL.x264.TR.Filmbol.mkv
Format                                   : Matroska
Format version                           : Version 4 / Version 2
File size                                : 1.77 GiB
Duration                                 : 1h 44mn
Overall bit rate                         : 2 413 Kbps
Movie name                               : Mogli: Orman Çocugu (2018) - Filmbol.org
Encoded date                             : UTC 2019-09-04 11:41:15
Writing application                      : mkvmerge v35.0.0 ('All The Love In The World') 64-bit
Writing library                          : libebml v1.3.9 + libmatroska v1.5.2

Video
ID                                       : 1
Format                                   : AVC
Format/Info                              : Advanced Video Codec
Format profile                           : [email protected]
Format settings, CABAC                   : Yes
Format settings, ReFrames                : 2 frames
Codec ID                                 : V_MPEG4/ISO/AVC
Duration                                 : 1h 44mn
Bit rate                                 : 2 027 Kbps
Width                                    : 1 920 pixels
Height                                   : 1 080 pixels
Display aspect ratio                     : 16:9
Frame rate mode                          : Constant
Frame rate                               : 23.976 (24000/1001) fps
Color space                              : YUV
Chroma subsampling                       : 4:2:0
Bit depth                                : 8 bits
Scan type                                : Progressive
Bits/(Pixel*Frame)                       : 0.041
Stream size                              : 1.48 GiB (84%)
Title                                    : 1080P - Filmbol.org
Default                                  : Yes
Forced                                   : No

Audio
ID                                       : 2
Format                                   : AC-3
Format/Info                              : Audio Coding 3
Mode extension                           : CM (complete main)
Format settings, Endianness              : Big
Codec ID                                 : A_AC3
Duration                                 : 1h 44mn
Bit rate mode                            : Constant
Bit rate                                 : 384 Kbps
Channel(s)                               : 6 channels
Channel positions                        : Front: L C R, Side: L R, LFE
Sampling rate                            : 48.0 KHz
Frame rate                               : 31.250 fps (1536 spf)
Compression mode                         : Lossy
Stream size                              : 288 MiB (16%)
Title                                    : Türkçe - Filmbol.org
Language                                 : Turkish
Default                                  : Yes
Forced                                   : No

Text
ID                                       : 3
Format                                   : UTF-8
Codec ID                                 : S_TEXT/UTF8
Codec ID/Info                            : UTF-8 Plain Text
Duration                                 : 33mn 35s
Bit rate                                 : 1 bps
Count of elements                        : 13
Stream size                              : 384 Bytes (0%)
Title                                    : KISIM
Language                                 : Turkish
Default                                  : Yes
Forced                                   : Yes



Film Detayları


Mogli

Mogli

Mogli


Film Fragmanı


Film Detayları

Mini 1080P İndir


Uptobox ile indir

1Fichier ile indir

1Fichier'den İndiremiyor musun? Tıklayın!


Mega linki şuan da gizli. Kullanıma açmak için konuya yorum yapın ve ardından sayfayı yenileyin.

Mega


MediaFire ile indir

Google Drive linki şuan da gizli. Kullanıma açmak için konuya yorum yapın ve ardından sayfayı yenileyin.

Google Drive

Şuan Offine!
Şuan Offine!
Aspirin46 Süper Üye
***
Super Üye

  • Konular0
  • Mesajlar57
  • Rep puanı 0
süper
Şuan Offine!
Şuan Offine!
Dünyalı Yeni Üye
*
Üye

  • Konular0
  • Mesajlar4
  • Rep puanı 0
üye girişi yapmama rağmen site hala üye olmanız gerekiyor diyor.
Şuan Offine!
Şuan Offine!
fantom1980 Uzman Üye
**
Uzman Üye

  • Konular0
  • Mesajlar19
  • Rep puanı 0
teşekkürler
Şuan Offine!
Şuan Offine!
muratti372 Yeni Üye
*
Üye

  • Konular0
  • Mesajlar4
  • Rep puanı 0
güzell123123123
Şuan Offine!
Şuan Offine!
nacky Uzman Üye
**
Uzman Üye

  • Konular0
  • Mesajlar16
  • Rep puanı 0
awesome
Şuan Offine!
Şuan Offine!
Haakan Yeni Üye
*
Üye

  • Konular0
  • Mesajlar1
  • Rep puanı 0
Thanks
Şuan Offine!
Şuan Offine!
gmazi658 Süper Üye
***
Super Üye

  • Konular0
  • Mesajlar25
  • Rep puanı 0
teşekkür
Şuan Offine!
Şuan Offine!
saboom Uzman Üye
**
Uzman Üye

  • Konular0
  • Mesajlar7
  • Rep puanı 0
güzel
Şuan Offine!
Şuan Offine!
cmg44 Uzman Üye
**
Uzman Üye

  • Konular0
  • Mesajlar8
  • Rep puanı 0
Teşekkürler


Konu ile Alakalı Benzer Konular
Konular Yazar Yorumlar Okunma Son Yorum
Filmin Yayınlanma Tarihi: 2015
Yeni Ahit (Le tout nouveau testament) - 2015 - TR+ORG - 1080P | tt3792960 TheSteeL 0 9 , Saat: 23:52
Son Yorum: TheSteeL
Filmin Yayınlanma Tarihi: 2015
Diriliş (The Revenant) - 2015 - TR+ORG - 1080P | tt1663202 BroserBros 5 3,154 , Saat: 19:43
Son Yorum: BroserBros
Filmin Yayınlanma Tarihi: 2018
Adalet 2 (The Equalizer 2) - 2018 - TR+ORG - 1080P | tt3766354 BroserBros 6 1,201 , Saat: 19:30
Son Yorum: BroserBros
Filmin Yayınlanma Tarihi: 2019
Aslan Kral (The Lion King) - 2019 - TR+ORG - 1080P | tt6105098 BroserBros 49 5,141 , Saat: 19:18
Son Yorum: BroserBros
Filmin Yayınlanma Tarihi: 2015
Ters Yüz (Inside Out) - 2015 - TR+ORG - 1080P | tt2096673 BroserBros 25 9,576 , Saat: 19:07
Son Yorum: BroserBros

Hızlı Menü: