Hoşgeldin, Ziyaretçi: Giriş Yap Üye Ol


stats
Adblock'u kapattıysanız tıklayın.
Hoşgeldiniz!
Filmbol'u tercih ettiğiniz için teşekkürler, ancak ablock kullanarak devam edemezsiniz.
Merak etmeyin. Heryerden ardı ardına çıkan reklamlar görmeyeceksiniz :)

Sadece site içi 1 reklam göreceksin ve bu site gezintini etkilemeyecek.
Konuyu Oyla:
  • Derecelendirme: 5/5 - 1 oy
  • 1
  • 2
  • 3
  • 4
  • 5
Shaft (Shaft) Türkçe Dublaj m1080P İndir
#1
Filmin Yayınlanma Tarihi: 2019 

indirme türü


Bulut + Premium

vizyon tarihi


28 Haziran 2019

Boyutlar


1,89

diller


[TR]

altyazilar


Var, Kısımlı [Eklenebilir]

Video Format: Mkv


Matroska (.MKV)

Video Detay


MPEG-4, 2027 Kbps, 1,59GB

imdb puanı


6,5 / 10,0 / 12,000

süre


111 dakika

Ses Kodek: AC3


Audio Coding 3 (AC3)

Ses Detay


384 Kbps, 6 Kanal, 308Mb

Editör Puanı


6,3

Genislik Yukseklik


1920-1080

sürüm


x264 | m1080P



Film Detayları

Siber Güvenlik uzmanı olan John Shaft, en iyi arkadaşının ölümünün arkasındaki gerçeklerini gün yüzüne çıkarmak için mücadele verecektir.

Shaft (2019) Filmi İmdb'den 12.000 kişi tarafından oylandı ve 6,5puan aldı. Bu film için editör puanı 6,3 olarak belirlendi. İyi Seyirler!


Teknik Detaylar


Kod:
General
Complete name                            : Shaft.2019.m1080P.BLURAY.NF.WEBx264.TR.Filmbol.mkv.mkv
Format                                   : Matroska
Format version                           : Version 4 / Version 2
File size                                : 1.89 GiB
Duration                                 : 1h 52mn
Overall bit rate                         : 2 413 Kbps
Movie name                               : Shaft (2019) - Filmbol.org
Encoded date                             : UTC 2019-07-05 10:47:08
Writing application                      : mkvmerge v35.0.0 ('All The Love In The World') 64-bit
Writing library                          : libebml v1.3.9 + libmatroska v1.5.2

Video
ID                                       : 1
Format                                   : AVC
Format/Info                              : Advanced Video Codec
Format profile                           : Main@L4
Format settings, CABAC                   : Yes
Format settings, ReFrames                : 2 frames
Codec ID                                 : V_MPEG4/ISO/AVC
Duration                                 : 1h 52mn
Bit rate                                 : 2 027 Kbps
Width                                    : 1 920 pixels
Height                                   : 1 080 pixels
Display aspect ratio                     : 16:9
Frame rate mode                          : Constant
Frame rate                               : 24.000 fps
Color space                              : YUV
Chroma subsampling                       : 4:2:0
Bit depth                                : 8 bits
Scan type                                : Progressive
Bits/(Pixel*Frame)                       : 0.041
Stream size                              : 1.59 GiB (84%)
Title                                    : m1080P - Filmbol.org
Default                                  : Yes
Forced                                   : No

Audio
ID                                       : 2
Format                                   : AC-3
Format/Info                              : Audio Coding 3
Mode extension                           : CM (complete main)
Format settings, Endianness              : Big
Codec ID                                 : A_AC3
Duration                                 : 1h 52mn
Bit rate mode                            : Constant
Bit rate                                 : 384 Kbps
Channel(s)                               : 6 channels
Channel positions                        : Front: L C R, Side: L R, LFE
Sampling rate                            : 48.0 KHz
Frame rate                               : 31.250 fps (1536 spf)
Compression mode                         : Lossy
Stream size                              : 308 MiB (16%)
Title                                    : Türkçe - Filmbol.org
Language                                 : Turkish
Default                                  : Yes
Forced                                   : No

Text
ID                                       : 3
Format                                   : UTF-8
Codec ID                                 : S_TEXT/UTF8
Codec ID/Info                            : UTF-8 Plain Text
Duration                                 : 1h 46mn
Bit rate                                 : 1 bps
Count of elements                        : 41
Stream size                              : 1.31 KiB (0%)
Title                                    : KISIM
Language                                 : Turkish
Default                                  : Yes
Forced                                   : Yes



Film Detayları


Shaft

Shaft

Shaft

Shaft

Shaft




Film Fragmanı


Film Detayları

Mini 1080P İndir


Turbobit İle İndir

Uptobox ile indir

Mega ile indir

Dosya Upload ile indir

Filmbol'da aşağıdaki linkler sadece üyelere sunulur. Ayrıca bu linklerde link kısaltma servisleri kullanılmaz, linke tek tık ile reklamsız erişirsiniz. Konu'ya yorum yapın ve sayfayı yenileyin. Reklamsız linkler (en az 3 en fazla 5 link) açılmış olacaktır. Not: Filmbol'a üye olmak tamamen ücretsizdir, en az 3 link kuralı 01.07.2019 tarihinden sonraki paylaşımlar için geçerlidir. Ancak çoğu film için en az bir premium link her zaman bulunur.

Mega

Dosyaco

Dosyaupload

Mediafire

Google Drive
 
Cevapla
#2
ilk film teşekkürler
 
Cevapla
#3
Teşekkür Ederiz.
 
Cevapla
#4
teşekkürler
 
Cevapla
  


Hızlı Menü:


Şu anda bu konuyu okuyanlar: 1 Ziyaretçi