Hoşgeldin, Ziyaretçi: Giriş Yap Üye Ol


stats
Adblock'u kapattıysanız tıklayın.
Hoşgeldiniz!
Filmbol'u tercih ettiğiniz için teşekkürler, ancak ablock kullanarak devam edemezsiniz.
Merak etmeyin. Heryerden ardı ardına çıkan reklamlar görmeyeceksiniz :)

Sadece site içi 1 reklam göreceksin ve bu site gezintini etkilemeyecek.
Konuyu Oyla:
  • Derecelendirme: 0/5 - 0 oy
  • 1
  • 2
  • 3
  • 4
  • 5
Title: Shaft (Shaft) Türkçe Dublaj Brrip-Xvid İndir
Gösterim Stili
#1
Filmin Yayınlanma Tarihi: 2019 

indirme türü


Bulut + Premium

vizyon tarihi


28 Haziran 2019

Boyutlar


1,50

diller


[TR]

altyazilar


Var, Kısımlı [Eklenebilir]

Video Format: Avi


Audio Video Interleave (.AVI)

Video Detay


MPEG-4, 1787 Kbps, 1,40GB

imdb puanı


6,5 / 10,0 / 12,000

süre


111 dakika

Ses Kodek: MP3


MPEG-1 Audio Layer III (MP3)

Ses Detay


128 Kbps, 2 Kanal, 103 Mb

Editör Puanı


6,3

Genislik Yukseklik


720-300

sürüm


h263 | Brrip-Xvid



Film Detayları

Siber Güvenlik uzmanı olan John Shaft, en iyi arkadaşının ölümünün arkasındaki gerçeklerini gün yüzüne çıkarmak için mücadele verecektir.

Shaft (2019) Filmi İmdb'den 12.000 kişi tarafından oylandı ve 6,5puan aldı. Bu film için editör puanı 6,3 olarak belirlendi. İyi Seyirler!


Teknik Detaylar

Kod:
General
Complete name                            : Shaft.2019.HDRip.XviD.TR.Filmbol.avi
Format                                   : AVI
Format/Info                              : Audio Video Interleave
File size                                : 1.51 GiB
Duration                                 : 1h 52mn
Overall bit rate                         : 1 928 Kbps

Video
ID                                       : 0
Format                                   : MPEG-4 Visual
Format profile                           : Simple@L5
Format settings, BVOP                    : No
Format settings, QPel                    : No
Format settings, GMC                     : No warppoints
Format settings, Matrix                  : Default (H.263)
Codec ID                                 : XVID
Codec ID/Hint                            : XviD
Duration                                 : 1h 52mn
Bit rate                                 : 1 787 Kbps
Width                                    : 720 pixels
Height                                   : 300 pixels
Display aspect ratio                     : 2.40:1
Frame rate                               : 24.000 fps
Color space                              : YUV
Chroma subsampling                       : 4:2:0
Bit depth                                : 8 bits
Scan type                                : Progressive
Compression mode                         : Lossy
Bits/(Pixel*Frame)                       : 0.345
Stream size                              : 1.40 GiB (93%)
Writing library                          : Lavc58.1.100

Audio
ID                                       : 1
Format                                   : MPEG Audio
Format version                           : Version 1
Format profile                           : Layer 3
Mode                                     : Joint stereo
Mode extension                           : MS Stereo
Codec ID                                 : 55
Codec ID/Hint                            : MP3
Duration                                 : 1h 52mn
Bit rate mode                            : Constant
Bit rate                                 : 128 Kbps
Channel(s)                               : 2 channels
Sampling rate                            : 48.0 KHz
Compression mode                         : Lossy
Stream size                              : 103 MiB (7%)
Alignment                                : Aligned on interleaves
Interleave, duration                     : 24 ms (0.58 video frame)



Film Detayları


Shaft

Shaft

Shaft

Shaft

Shaft




Film Fragmanı


Film Detayları

Brrip İndir


Turbobit İle İndir

Uptobox ile indir

Mega ile indir

Cloud Ru ile indir

Dosya Upload ile indir

Filmbol'da aşağıdaki linkler sadece üyelere sunulur. Ayrıca bu linklerde link kısaltma servisleri kullanılmaz, linke tek tık ile reklamsız erişirsiniz. Konu'ya yorum yapın ve sayfayı yenileyin. Reklamsız linkler (en az 3 en fazla 5 link) açılmış olacaktır. Not: Filmbol'a üye olmak tamamen ücretsizdir, en az 3 link kuralı 01.07.2019 tarihinden sonraki paylaşımlar için geçerlidir. Ancak çoğu film için en az bir premium link her zaman bulunur.

Mega

Dosyaco

Dosyaupload

Mediafire

Google Drive
 
Cevapla
  


Konu ile Alakalı Benzer Konular
Konular Yazar Yorumlar Okunma Son Yorum
Filmin Yayınlanma Tarihi: 2018 Sessiz Kalma (The Hate U Give) Türkçe Dublaj Brrip Xvid İndir BroserBros 0 78 20-08-2019, Saat: 11:07
Son Yorum: BroserBros
Filmin Yayınlanma Tarihi: 2019 The Highwaymen (2019) Türkçe Dublaj Brrip Xvid İndir BroserBros 0 121 18-07-2019, Saat: 17:07
Son Yorum: BroserBros
Filmin Yayınlanma Tarihi: 2015 Sicario (Sicario) Türkçe Dublaj Brrip-Xvid İndir BroserBros 1 1,337 11-01-2019, Saat: 03:14
Son Yorum: mehmetemin
Filmin Yayınlanma Tarihi: 2018 Öldürme Arzusu (Death Wish) Türkçe Dublaj Brrip-Xvid İndir BroserBros 1 772 13-12-2018, Saat: 17:03
Son Yorum: rainbowdivx
Filmin Yayınlanma Tarihi: 2018 İntikam: Bir Aşk Hikayesi (Vengeance: A Love Story) Türkçe Dublaj Brrip-Xvid İndir BroserBros 0 445 03-08-2018, Saat: 20:03
Son Yorum: BroserBros

Hızlı Menü:


Browsing: 1 Ziyaretçi