Filmbol Forum Film İndir BRRip XviD v Shaft (Shaft) Türkçe Dublaj Brrip-Xvid İndir
Shaft (Shaft) Türkçe Dublaj Brrip-Xvid İndir
BroserBros
Shaft (Shaft) Türkçe Dublaj Brrip-Xvid İndir
0
341
  • Derecelendirme: 0/5 - 0 oy
  • 1
  • 2
  • 3
  • 4
  • 5
Konuyu Okuyanlar:1 Ziyaretçi
Şuan Online!
Filmin Yayınlanma Tarihi: 2019 
Şuan Online!
BroserBros Kurucu Admin
*******
Admin

indirme türü


Bulut + Premium

Vizyon Tarihi


28 Haziran 2019

Boyutlar


1,50

diller


[TR]

altyazilar


Var, Kısımlı [Eklenebilir]

Video Format: Avi


Audio Video Interleave (.AVI)

Video Detay


MPEG-4, 1787 Kbps, 1,40GB

imdb puanı


6,5 / 10,0 / 12,000

süre


111 dakika

Ses Kodek: MP3


MPEG-1 Audio Layer III (MP3)

Ses Detay


128 Kbps, 2 Kanal, 103 Mb

Editör Puanı


6,3

Genislik Yukseklik


720-300

sürüm


h263 | Brrip-Xvid


Film Detayları

Siber Güvenlik uzmanı olan John Shaft, en iyi arkadaşının ölümünün arkasındaki gerçeklerini gün yüzüne çıkarmak için mücadele verecektir.

Shaft (2019) Filmi İmdb'den 12.000 kişi tarafından oylandı ve 6,5puan aldı. Bu film için editör puanı 6,3 olarak belirlendi. İyi Seyirler!


Teknik Detaylar

Kod :
General
Complete name                            : Shaft.2019.HDRip.XviD.TR.Filmbol.avi
Format                                   : AVI
Format/Info                              : Audio Video Interleave
File size                                : 1.51 GiB
Duration                                 : 1h 52mn
Overall bit rate                         : 1 928 Kbps

Video
ID                                       : 0
Format                                   : MPEG-4 Visual
Format profile                           : Simple@L5
Format settings, BVOP                    : No
Format settings, QPel                    : No
Format settings, GMC                     : No warppoints
Format settings, Matrix                  : Default (H.263)
Codec ID                                 : XVID
Codec ID/Hint                            : XviD
Duration                                 : 1h 52mn
Bit rate                                 : 1 787 Kbps
Width                                    : 720 pixels
Height                                   : 300 pixels
Display aspect ratio                     : 2.40:1
Frame rate                               : 24.000 fps
Color space                              : YUV
Chroma subsampling                       : 4:2:0
Bit depth                                : 8 bits
Scan type                                : Progressive
Compression mode                         : Lossy
Bits/(Pixel*Frame)                       : 0.345
Stream size                              : 1.40 GiB (93%)
Writing library                          : Lavc58.1.100

Audio
ID                                       : 1
Format                                   : MPEG Audio
Format version                           : Version 1
Format profile                           : Layer 3
Mode                                     : Joint stereo
Mode extension                           : MS Stereo
Codec ID                                 : 55
Codec ID/Hint                            : MP3
Duration                                 : 1h 52mn
Bit rate mode                            : Constant
Bit rate                                 : 128 Kbps
Channel(s)                               : 2 channels
Sampling rate                            : 48.0 KHz
Compression mode                         : Lossy
Stream size                              : 103 MiB (7%)
Alignment                                : Aligned on interleaves
Interleave, duration                     : 24 ms (0.58 video frame)



Film Detayları


Shaft

Shaft

Shaft

Shaft

Shaft




Film Fragmanı


Film Detayları

Brrip İndir


Uptobox ile indir

Mega ile indir

CloudRu ile indir

j3sH

Mega Upload ile indir



Konu ile Alakalı Benzer Konular
Konular Yazar Yorumlar Okunma Son Yorum
Filmin Yayınlanma Tarihi: 2019
Ritüel (Midsommar) - 2019 - TR - BRRip XviD BroserBros 0 9 2 saat önce
Son Yorum: BroserBros
Filmin Yayınlanma Tarihi: 2020
Muhabbet Kuşları (The Lovebirds) - 2020 - TR - BRRip XviD BroserBros 0 13 3 saat önce
Son Yorum: BroserBros
Filmin Yayınlanma Tarihi: 2020
Patron Gibi (Like a Boss) - 2020 - TR - BRRip XviD BroserBros 0 43 29-05-2020, Saat: 15:43
Son Yorum: BroserBros
Filmin Yayınlanma Tarihi: 2014
6 Süper Kahraman (Big Hero 6) - 2014 - TR - BRRip XviD BroserBros 0 41 29-05-2020, Saat: 15:27
Son Yorum: BroserBros
Filmin Yayınlanma Tarihi: 2019
Gece Kuşu (Late Night) - 2019 - TR - BRRip XviD BroserBros 0 42 29-05-2020, Saat: 13:32
Son Yorum: BroserBros

Hızlı Menü: