Filmbol Forum Film İndir 720P v Şeytan Göz (Demon Eye) Türkçe Dublaj BLURAY 720P İndir
Mega linklerinin şikayet edilmemesi için global erişime kapatıp sadece yorum yapanlara açıyoruz. Bu linkleri gizleme işlemini mecburen yapıyoruz ve yorum yapmanızın siteye değil size faydası vardır. Teşekürler yazmayı çok görüp, Random/Spam mesajlar atarak Mega linklerini açmaya çalışan kullanıcılara önce süresiz ban, devam ederse IP ban atacağız.
Filmbol'da moderatör olmak ister misiniz? Bizimle iletişime geçmek için tıklayın!
Şeytan Göz (Demon Eye) Türkçe Dublaj BLURAY 720P İndir
BroserBros
Şeytan Göz (Demon Eye) Türkçe Dublaj BLURAY 720P İndir
4
526
  • Derecelendirme: 0/5 - 0 oy
  • 1
  • 2
  • 3
  • 4
  • 5
Konuyu Okuyanlar:1 Ziyaretçi
Şuan Online!
Filmin Yayınlanma Tarihi: 2019 
WWW
Şuan Online!
BroserBros Kurucu Admin
*******
Admin








Şeytan Göz




Teknik Detaylar


Kod :
General
Unique ID                                : 55527929691295150696275451322717403073 (0x29C64A4E19E6F9C5B7A463374C1B77C1)
Complete name                            : /root/Desktop/2/Şeytan.Göz.2019.720p.WEB-DL.x264.TR.Filmbol.mkv
Format                                   : Matroska
Format version                           : Version 4 / Version 2
File size                                : 925 MiB
Duration                                 : 1h 26mn
Overall bit rate                         : 1 494 Kbps
Movie name                               : Şeytan Göz (2019) - Filmbol.org
Encoded date                             : UTC 2020-01-05 01:58:10
Writing application                      : mkvmerge v35.0.0 ('All The Love In The World') 64-bit
Writing library                          : libebml v1.3.9 + libmatroska v1.5.2

Video
ID                                       : 1
Format                                   : AVC
Format/Info                              : Advanced Video Codec
Format profile                           : [email protected]
Format settings, CABAC                   : Yes
Format settings, ReFrames                : 2 frames
Codec ID                                 : V_MPEG4/ISO/AVC
Duration                                 : 1h 26mn
Bit rate                                 : 1 300 Kbps
Width                                    : 1 280 pixels
Height                                   : 528 pixels
Display aspect ratio                     : 2.40:1
Frame rate mode                          : Constant
Frame rate                               : 24.000 fps
Color space                              : YUV
Chroma subsampling                       : 4:2:0
Bit depth                                : 8 bits
Scan type                                : Progressive
Bits/(Pixel*Frame)                       : 0.080
Stream size                              : 805 MiB (87%)
Title                                    : 720P - Filmbol.org
Language                                 : English
Default                                  : Yes
Forced                                   : No

Audio
ID                                       : 2
Format                                   : AC-3
Format/Info                              : Audio Coding 3
Mode extension                           : CM (complete main)
Format settings, Endianness              : Big
Codec ID                                 : A_AC3
Duration                                 : 1h 26mn
Bit rate mode                            : Constant
Bit rate                                 : 192 Kbps
Channel(s)                               : 2 channels
Channel positions                        : Front: L R
Sampling rate                            : 48.0 KHz
Frame rate                               : 31.250 fps (1536 spf)
Compression mode                         : Lossy
Stream size                              : 119 MiB (13%)
Title                                    : Türkçe - Filmbol.org
Language                                 : Turkish
Default                                  : Yes
Forced                                   : No

Film Detayları


Şeytan Göz

Şeytan Göz

Şeytan Göz


Film Fragmanı


Film Detayları

Mini 720P İndir



Uptobox ile indir

1Fichier ile indir

1Fichier'den İndiremiyor musun? Tıklayın!


Mega linki şuan da gizli. Kullanıma açmak için konuya yorum yapın ve ardından sayfayı yenileyin.

Mega


MediaFire ile indir

Şuan Offine!
Şuan Offine!
peterfaker Uzman Üye
**
Uzman Üye

  • Konular0
  • Mesajlar9
  • Rep puanı 0
güzel film
Şuan Offine!
Şuan Offine!
gokenci43 Uzman Üye
**
Uzman Üye

  • Konular0
  • Mesajlar16
  • Rep puanı 0
güzelll
Şuan Offine!
Şuan Offine!
panganod Uzman Üye
**
Uzman Üye

  • Konular0
  • Mesajlar6
  • Rep puanı 0
iyi fazla
Şuan Offine!
Şuan Offine!
samedihsan01 Yeni Üye
*
Üye

  • Konular0
  • Mesajlar2
  • Rep puanı 0
asdesad


Konu ile Alakalı Benzer Konular
Konular Yazar Yorumlar Okunma Son Yorum
Filmin Yayınlanma Tarihi: 1974
Baba 2 (The Godfather: Part II) - 1974 - TR+ORG - 720P | tt0071562 BroserBros 1 266 1 saat önce
Son Yorum: BroserBros
Filmin Yayınlanma Tarihi: 2008
VOL-i (WALL-E) - 2008 - TR+ORG - 720P | tt0910970 BroserBros 2 334 1 saat önce
Son Yorum: BroserBros
Filmin Yayınlanma Tarihi: 1972
Baba (The Godfather) - 1972 - TR+ORG - 720P | tt0068646 BroserBros 1 209 1 saat önce
Son Yorum: BroserBros
Filmin Yayınlanma Tarihi: 1990
Baba 3 (The Godfather: Part III) - 1990 - TR+ORG - 720P | tt0099674 BroserBros 1 269 2 saat önce
Son Yorum: BroserBros
Filmin Yayınlanma Tarihi: 1998
Armageddon (Armageddon) - 1998 - TR+ORG - 720P | tt0120591 BroserBros 1 299 3 saat önce
Son Yorum: BroserBros

Hızlı Menü: