Hoşgeldin, Ziyaretçi: Giriş Yap Üye Ol


stats
Adblock'u kapattıysanız tıklayın.
Hoşgeldiniz!
Filmbol'u tercih ettiğiniz için teşekkürler, ancak ablock kullanarak devam edemezsiniz.
Merak etmeyin. Heryerden ardı ardına çıkan reklamlar görmeyeceksiniz :)

Sadece site içi 1 reklam göreceksin ve bu site gezintini etkilemeyecek.
Konuyu Oyla:
  • Derecelendirme: 0/5 - 0 oy
  • 1
  • 2
  • 3
  • 4
  • 5
Sevgiler, Simon (Love, Simon) Türkçe Dublaj BLURAY m720P İndir
#1
Filmin Yayınlanma Tarihi: 2018 

indirme türü


Bulut + Premium

vizyon tarihi


16 Mart 2018

Boyutlar


1,10

diller


[TR]

altyazilar


KISIM [Eklenebilir]

Video Format: Mkv


Matroska (.MKV)

Video Detay


MPEG-4, 1050 Kbps, 0,82 GB

imdb puanı


7,6 / 10,0 / 85,000

süre


110 dakika

Ses Kodek: AC3


Audio Coding 3 (AC3)

Ses Detay


384 Kbps, 6 Kanal, 301 Mb

Editör Puanı


7,3

Genislik Yukseklik


1280-534

sürüm


x264 | m720P








Sevgiler Simon


Film Detayları

Herkes gençlik yıllarında masalsı bir aşk hikayesini hak eder. Ancak ne yazık ki, durum 17 yaşındaki Simon Spier için biraz karışık. O, henüz ailesine ve arkadaşlarına eşcinsel olduğu gerçeğini açıklayabilmiş değil. Üstelik sorunları, onların tepkilerinden korkmakla da kalmıyor. İnternet üzerinden konuştuğu bir sınıf arkadaşına da aşık. Ancak kimliğini gizli tutan bu sınıf arkadaşının kim olduğu hakkında hiçbir fikri yok! Bu iki sorunun çözümü de hayatını değiştirecek adımlar atmasından geçiyor...

Sevgiler, Simon (Love, Simon) Filmi Imdb'den 85.000 kişi tarafından oylandı ve 7,6 puan aldı. Bu film için editör puanı 7,3 olarak belirlendi. İyi Seyirler!


Teknik Detaylar


Kod:
General
Complete name                            : Sevgiler.Simon.2018.m720p.BLURAY.x264.TR.Filmbol.mkv
Format                                   : Matroska
Format version                           : Version 4 / Version 2
File size                                : 1.10 GiB
Duration                                 : 1h 49mn
Overall bit rate                         : 1 436 Kbps
Movie name                               : Sevgiler, Simon (2018) - Filmbol.org
Encoded date                             : UTC 2019-07-26 09:37:44
Writing application                      : mkvmerge v35.0.0 ('All The Love In The World') 64-bit
Writing library                          : libebml v1.3.9 + libmatroska v1.5.2

Video
ID                                       : 1
Format                                   : AVC
Format/Info                              : Advanced Video Codec
Format profile                           : High@L4.1
Format settings, CABAC                   : Yes
Format settings, ReFrames                : 4 frames
Codec ID                                 : V_MPEG4/ISO/AVC
Duration                                 : 1h 49mn
Bit rate                                 : 1 050 Kbps
Width                                    : 1 280 pixels
Height                                   : 534 pixels
Display aspect ratio                     : 2.40:1
Original display aspect ratio            : 2.40:1
Frame rate mode                          : Constant
Frame rate                               : 23.976 (24000/1001) fps
Color space                              : YUV
Chroma subsampling                       : 4:2:0
Bit depth                                : 8 bits
Scan type                                : Progressive
Bits/(Pixel*Frame)                       : 0.064
Stream size                              : 824 MiB (73%)
Title                                    : m720P - Filmbol.org
Writing library                          : x264 core 155
Default                                  : Yes
Forced                                   : No

Audio
ID                                       : 2
Format                                   : AC-3
Format/Info                              : Audio Coding 3
Mode extension                           : CM (complete main)
Format settings, Endianness              : Big
Codec ID                                 : A_AC3
Duration                                 : 1h 49mn
Bit rate mode                            : Constant
Bit rate                                 : 384 Kbps
Channel(s)                               : 6 channels
Channel positions                        : Front: L C R, Side: L R, LFE
Sampling rate                            : 48.0 KHz
Frame rate                               : 31.250 fps (1536 spf)
Compression mode                         : Lossy
Stream size                              : 301 MiB (27%)
Title                                    : Türkçe - Filmbol.org
Language                                 : Turkish
Default                                  : Yes
Forced                                   : No

Text
ID                                       : 3
Format                                   : UTF-8
Codec ID                                 : S_TEXT/UTF8
Codec ID/Info                            : UTF-8 Plain Text
Duration                                 : 1h 41mn
Bit rate                                 : 0 bps
Count of elements                        : 9
Stream size                              : 246 Bytes (0%)
Title                                    : KISIM
Language                                 : Turkish
Default                                  : Yes
Forced                                   : Yes



Film Detayları


Sevgiler Simon

Sevgiler Simon

Sevgiler Simon


Film Fragmanı


Film Detayları

Mini 720P İndir


Uptobox ile indir

Filerio ile indir

LetsUpload ile indir

MegaUp ile indir

Filmbol'da aşağıdaki linkler sadece üyelere sunulur. Ayrıca bu linklerde link kısaltma servisleri kullanılmaz, linke tek tık ile reklamsız erişirsiniz. Konu'ya yorum yapın ve sayfayı yenileyin. Reklamsız linkler (en az 3 en fazla 5 link) açılmış olacaktır. Not: Filmbol'a üye olmak tamamen ücretsizdir, en az 3 link kuralı 01.07.2019 tarihinden sonraki paylaşımlar için geçerlidir. Ancak çoğu film için en az bir premium link her zaman bulunur.

Mega

Dosyaco

Dosyaupload

Mediafire

Google Drive
 
Cevapla
#2
baya iyi filim
 
Cevapla
#3
.....
 
Cevapla
#4
Teşekkürler
 
Cevapla
#5
Filmin Yayınlanma Tarihi: 1997 
fsaaaaaaaaaaaaaaaaaaaa
 
Cevapla
  


Konu ile Alakalı Benzer Konular
Konular Yazar Yorumlar Okunma Son Yorum
Filmin Yayınlanma Tarihi: 2016 Aşk ve Dostluk (Love and Friendship) Türkçe Dublaj m720P İndir BroserBros 0 584 16-01-2017, Saat: 21:02
Son Yorum: BroserBros

Hızlı Menü:


Şu anda bu konuyu okuyanlar: firatcan140, 1 Ziyaretçi