Hoşgeldin, Ziyaretçi: Giriş Yap Üye Ol


stats
Adblock'u kapattıysanız tıklayın.
Hoşgeldiniz!
Filmbol'u tercih ettiğiniz için teşekkürler, ancak ablock kullanarak devam edemezsiniz.
Merak etmeyin. Heryerden ardı ardına çıkan reklamlar görmeyeceksiniz :)

Sadece site içi 1 reklam göreceksin ve bu site gezintini etkilemeyecek.
Konuyu Oyla:
  • Derecelendirme: 0/5 - 0 oy
  • 1
  • 2
  • 3
  • 4
  • 5
Title: Sessiz Kalma (The Hate U Give) Türkçe Dublaj BLURAY m720P İndir
Gösterim Stili
#1
Filmin Yayınlanma Tarihi: 2018 

indirme türü


Bulut + Premium

vizyon tarihi


19 Ocak 2018

Boyutlar


1,39

diller


[TR]

altyazilar


KISIM [Eklenebilir]

Video Format: Mkv


Matroska (.MKV)

Video Detay


MPEG-4, 1050 Kbps, 0,99GB

imdb puanı


7,3 / 10,0 / 21,000

süre


133 dakika

Ses Kodek: AC3


Audio Coding 3 (AC3)

Ses Detay


448 Kbps, 6 Kanal, 426Mb

Editör Puanı


6,5

Genislik Yukseklik


1280-534

sürüm


x264 | m720P





Sessiz Kalma


Film Detayları

Aşırı yoksul bir bölgede büyüyen 16 yaşındaki Starr (Amandla Stenberg) artık banliyödeki özel bir hazırlık okuluna gitmektedir. Bir gün en yakın arkadaşı Khalil (Algee Smith) suçsuz yere bir polis cinayetine kurban gider. Toplumun her kesiminden baskı görmeye başlayan Starr, kendi sesine kulak vermeli ve doğru olduğunu düşündüğü şeyi savunmalıdır.
 
Sessiz Kalma (The Hate U Give) Filmi Imdb'den 21,000 kişi tarafından oylandı ve 7,3 puan aldı. Bu film için editör puanı 6,5 olarak belirlendi. İyi Seyirler!


Teknik Detaylar

Kod:
General
Complete name                            : Sessiz.Kalma.2018.m720p.BLURAY.x264.TR.Filmbol.mkv
Format                                   : Matroska
Format version                           : Version 4 / Version 2
File size                                : 1.39 GiB
Duration                                 : 2h 13mn
Overall bit rate                         : 1 500 Kbps
Movie name                               : Sessiz Kalma (2018) - Filmbol.org
Encoded date                             : UTC 2019-08-19 18:16:16
Writing application                      : mkvmerge v35.0.0 ('All The Love In The World') 64-bit
Writing library                          : libebml v1.3.9 + libmatroska v1.5.2

Video
ID                                       : 1
Format                                   : AVC
Format/Info                              : Advanced Video Codec
Format profile                           : High@L4.1
Format settings, CABAC                   : Yes
Format settings, ReFrames                : 4 frames
Codec ID                                 : V_MPEG4/ISO/AVC
Duration                                 : 2h 13mn
Bit rate                                 : 1 050 Kbps
Width                                    : 1 280 pixels
Height                                   : 534 pixels
Display aspect ratio                     : 2.40:1
Original display aspect ratio            : 2.40:1
Frame rate mode                          : Constant
Frame rate                               : 23.976 (24000/1001) fps
Color space                              : YUV
Chroma subsampling                       : 4:2:0
Bit depth                                : 8 bits
Scan type                                : Progressive
Bits/(Pixel*Frame)                       : 0.064
Stream size                              : 999 MiB (70%)
Title                                    : m720P - Filmbol.org
Writing library                          : x264 core 157
Default                                  : Yes
Forced                                   : No

Audio
ID                                       : 2
Format                                   : AC-3
Format/Info                              : Audio Coding 3
Mode extension                           : CM (complete main)
Format settings, Endianness              : Big
Codec ID                                 : A_AC3
Duration                                 : 2h 13mn
Bit rate mode                            : Constant
Bit rate                                 : 448 Kbps
Channel(s)                               : 6 channels
Channel positions                        : Front: L C R, Side: L R, LFE
Sampling rate                            : 48.0 KHz
Frame rate                               : 31.250 fps (1536 spf)
Compression mode                         : Lossy
Stream size                              : 426 MiB (30%)
Title                                    : Türkçe - Filmbol.org
Language                                 : Turkish
Default                                  : Yes
Forced                                   : No

Text
ID                                       : 3
Format                                   : UTF-8
Codec ID                                 : S_TEXT/UTF8
Codec ID/Info                            : UTF-8 Plain Text
Duration                                 : 2h 9mn
Bit rate                                 : 0 bps
Count of elements                        : 24
Stream size                              : 627 Bytes (0%)
Title                                    : KISIM
Language                                 : Turkish
Default                                  : Yes
Forced                                   : No



Film Detayları


Sessiz Kalma

Sessiz Kalma

Sessiz Kalma


Film Fragmanı


Film Detayları

Mini 720P İndir


MixDrop ile indir

Tusfiles ile indir

LetsUpload ile indir

Filmbol'da aşağıdaki linkler sadece üyelere sunulur. Ayrıca bu linklerde link kısaltma servisleri kullanılmaz, linke tek tık ile reklamsız erişirsiniz. Konu'ya yorum yapın ve sayfayı yenileyin. Reklamsız linkler (en az 3 en fazla 5 link) açılmış olacaktır. Not: Filmbol'a üye olmak tamamen ücretsizdir, en az 3 link kuralı 01.07.2019 tarihinden sonraki paylaşımlar için geçerlidir. Ancak çoğu film için en az bir premium link her zaman bulunur.

Mega

Dosyaco

Dosyaupload

Mediafire

Google Drive
 
Cevapla
#2
Teşekkürler.
 
Cevapla
#3
##############
 
Cevapla
#4
iyi gibi izleyelim teşekkürler
 
Cevapla
  


Konu ile Alakalı Benzer Konular
Konular Yazar Yorumlar Okunma Son Yorum
Filmin Yayınlanma Tarihi: 2019 The Highwaymen (2019) Türkçe Dublaj BLURAY m720P İndir BroserBros 0 105 18-07-2019, Saat: 17:07
Son Yorum: BroserBros

Hızlı Menü:


Browsing: 1 Ziyaretçi