Filmbol Forum Film İndir BRRip XviD v Sergio (Sergio) - 2020 - TR - BRRip XviD
Moderatör Alımları Başladı! Başvuru yapmak için tıklayın.
Filmbol Premium'da %50'e varan indirim fırsatı!
Sergio (Sergio) - 2020 - TR - BRRip XviD
BroserBros
Sergio (Sergio) - 2020 - TR - BRRip XviD
0
84
  • Derecelendirme: 0/5 - 0 oy
  • 1
  • 2
  • 3
  • 4
  • 5
Konuyu Okuyanlar:1 Ziyaretçi
Şuan Online!
Filmin Yayınlanma Tarihi: 2020 
Şuan Online!
BroserBros Kurucu Admin
*******
Admin

Vizyon Tarihi


17 Nisan 2020

imdb puanı


6,3 / 1,500

süre


118 dakika

Editör Puanı


6,0 / 10

Video Format: Avi


Audio Video Interleave (.AVI)

Ses Kodek: MP3


MPEG-1 Audio Layer III (MP3)

sürüm


h263 | HDRip XviD

Boyutlar


1,44 GB



 Sergio



Başarılı ve aynı zamanda karizmatik olan bir BM diplamatı olan Sergio, Irakta bir grup tarafından hayatı tehdit edilmeye başlayınca tüm idealleri ve tutkular karman çorman olur ve herşey birbirine karışır...

Sergio (2020) (Sergio) Filmi Imdb'den 1,500 kişi tarafından oylandı ve 6,3 puan aldı. Bu film için editör puanı 6,0 olarak belirlendi. İyi Seyirler!

Teknik Detaylar

Kod :
General
Complete name                            : /root/Desktop/2/Sergio.2020.HDRip.XviD.TR.Filmbol.avi
Format                                  : AVI
Format/Info                              : Audio Video Interleave
File size                                : 1.44 GiB
Duration                                : 1h 58mn
Overall bit rate                        : 1 732 Kbps

Video
ID                                      : 0
Format                                  : MPEG-4 Visual
Format profile                          : Simple@L5
Format settings, BVOP                    : No
Format settings, QPel                    : No
Format settings, GMC                    : No warppoints
Format settings, Matrix                  : Default (H.263)
Codec ID                                : XVID
Codec ID/Hint                            : XviD
Duration                                : 1h 58mn
Bit rate                                : 1 591 Kbps
Width                                    : 720 pixels
Height                                  : 360 pixels
Display aspect ratio                    : 2.000
Frame rate                              : 23.976 fps
Color space                              : YUV
Chroma subsampling                      : 4:2:0
Bit depth                                : 8 bits
Scan type                                : Progressive
Compression mode                        : Lossy
Bits/(Pixel*Frame)                      : 0.256
Stream size                              : 1.32 GiB (92%)
Writing library                          : Lavc58.35.100

Audio
ID                                      : 1
Format                                  : MPEG Audio
Format version                          : Version 1
Format profile                          : Layer 3
Mode                                    : Joint stereo
Codec ID                                : 55
Codec ID/Hint                            : MP3
Duration                                : 1h 58mn
Bit rate mode                            : Constant
Bit rate                                : 128 Kbps
Channel(s)                              : 2 channels
Sampling rate                            : 48.0 KHz
Compression mode                        : Lossy
Stream size                              : 109 MiB (7%)
Alignment                                : Aligned on interleaves
Interleave, duration                    : 24 ms (0.58 video frame)

Film Detayları


 Sergio

 Sergio

 Sergio


Film Fragmanı


Film Detayları


Uptobox ile indir

1Fichier ile indir

1Fichier'den İndiremiyor musun? Tıklayın!


Mega ile indir

Bunun için üzgünüz ancak, bu linke sadece premium üyeler erişebilir.

Filmbol Cloud



Konu ile Alakalı Benzer Konular
Konular Yazar Yorumlar Okunma Son Yorum
Filmin Yayınlanma Tarihi: 2018
Seviye 16 (Level 16) - 2018 - TR - BRRip XviD BroserBros 0 79 04-07-2020, Saat: 21:27
Son Yorum: BroserBros
Filmin Yayınlanma Tarihi: 2018
Küçük Orman (Little Woods) - 2018 - TR - BRRip XviD BroserBros 0 79 04-07-2020, Saat: 19:58
Son Yorum: BroserBros
Filmin Yayınlanma Tarihi: 2018
Suda Ölüm (Dead in the Water) - 2018 - TR - BRRip XviD BroserBros 0 77 04-07-2020, Saat: 19:40
Son Yorum: BroserBros
Filmin Yayınlanma Tarihi: 2019
Aşkı Beklerken (Deux moi - Someone, Somewhere) - 2019 - TR - BRRip XviD BroserBros 0 49 03-07-2020, Saat: 14:17
Son Yorum: BroserBros
Filmin Yayınlanma Tarihi: 2019
Hellboy (Hellboy) - 2019 - TR - BRRip XviD BroserBros 0 58 03-07-2020, Saat: 12:39
Son Yorum: BroserBros

Hızlı Menü: