Filmbol Forum Film İndir BRRip XviD v Serenity: Gizemli Yolculuk (Serenity) Türkçe Dublaj BRRip XviD indir
Mega linklerinin şikayet edilmemesi için global erişime kapatıp sadece yorum yapanlara açıyoruz. Bu linkleri gizleme işlemini mecburen yapıyoruz ve yorum yapmanızın siteye değil size faydası vardır. Teşekürler yazmayı çok görüp, Random/Spam mesajlar atarak Mega linklerini açmaya çalışan kullanıcılara önce süresiz ban, devam ederse IP ban atacağız.
Filmbol'da moderatör olmak ister misiniz? Bizimle iletişime geçmek için tıklayın!
Serenity: Gizemli Yolculuk (Serenity) Türkçe Dublaj BRRip XviD indir
BroserBros
Serenity: Gizemli Yolculuk (Serenity) Türkçe Dublaj BRRip XviD indir
4
473
  • Derecelendirme: 0/5 - 0 oy
  • 1
  • 2
  • 3
  • 4
  • 5
Konuyu Okuyanlar:1 Ziyaretçi
Şuan Online!
Filmin Yayınlanma Tarihi: 2005 
WWW
Şuan Online!
BroserBros Kurucu Admin
*******
Admin








 Serenity: Gizemli Yolculuk



Baker Dill, tropikal Plymouth Adası'na tur gezileri yapan bir balıkçı teknesinin kaptanıdır. Ancak bu sessiz ve huzurlu hayatı, eski eşi Karen'ın çaresizce istediği bir iyilik ile paramparça olur. Onu ve genç oğullarını, yeni ve şiddet yanlısı kocasından kurtarması için yalvaran Karen'ın isteği, Dill'in, yeni eşini balık avı bahanesiyle denize çekmesi ve onu orada köpekbalıklarına atıp ölüme terketmesidir. Karen'ın ortaya çıkışıyla birlikte unutmak istediği bir hayata geri dönen Dill, doğru ile yanlış arasında bocalarken, Karen'ın yarattığı gerçekliğin fire vermeye başladığını fark eder...

Serenity: Gizemli Yolculuk (2005) (Serenity) Filmi Imdb'den 280,000 kişi tarafından oylandı ve 7,8 puan aldı. Bu film için editör puanı 7,6 olarak belirlendi. İyi Seyirler!

Teknik Detaylar

Kod :
General
Complete name                            : /root/Desktop/5/Serenity.Gizemli.Yolculuk.2005.BRRip.XviD.TR.Filmbol.avi
Format                                   : AVI
Format/Info                              : Audio Video Interleave
File size                                : 1.25 GiB
Duration                                 : 1h 59mn
Overall bit rate                         : 1 501 Kbps

Video
ID                                       : 0
Format                                   : MPEG-4 Visual
Format profile                           : Advanced [email protected]
Format settings, BVOP                    : 1
Format settings, QPel                    : No
Format settings, GMC                     : No warppoints
Format settings, Matrix                  : Default (MPEG)
Codec ID                                 : XVID
Codec ID/Hint                            : XviD
Duration                                 : 1h 59mn
Bit rate                                 : 1 361 Kbps
Width                                    : 720 pixels
Height                                   : 304 pixels
Display aspect ratio                     : 2.35:1
Frame rate                               : 23.976 (23976/1000) fps
Color space                              : YUV
Chroma subsampling                       : 4:2:0
Bit depth                                : 8 bits
Scan type                                : Progressive
Compression mode                         : Lossy
Bits/(Pixel*Frame)                       : 0.259
Stream size                              : 1.13 GiB (91%)
Writing library                          : XviD 1.2.1 (UTC 2008-12-04)

Audio
ID                                       : 1
Format                                   : MPEG Audio
Format version                           : Version 1
Format profile                           : Layer 3
Codec ID                                 : 55
Codec ID/Hint                            : MP3
Duration                                 : 1h 58mn
Bit rate mode                            : Constant
Bit rate                                 : 128 Kbps
Channel(s)                               : 2 channels
Sampling rate                            : 48.0 KHz
Compression mode                         : Lossy
Stream size                              : 109 MiB (9%)
Alignment                                : Aligned on interleaves
Interleave, duration                     : 24 ms (0.58 video frame)

Film Detayları


 Serenity: Gizemli Yolculuk

 Serenity: Gizemli Yolculuk

 Serenity: Gizemli Yolculuk


Film Fragmanı


Film Detayları


Uptobox ile indir

1Fichier ile indir

1Fichier'den İndiremiyor musun? Tıklayın!


Mega linki şuan da gizli. Kullanıma açmak için konuya yorum yapın ve ardından sayfayı yenileyin.

Mega


MediaFire ile indir

Şuan Offine!
Şuan Offine!
filmbolcu Süper Üye
***
Super Üye

  • Konular12
  • Mesajlar33
  • Rep puanı 2
Teşekkürler
Şuan Offine!
Şuan Offine!
agresif Uzman Üye
**
Uzman Üye

  • Konular0
  • Mesajlar20
  • Rep puanı 0
teşekkürler
Şuan Offine!
Şuan Offine!
tarik55 Uzman Üye
**
Uzman Üye

  • Konular0
  • Mesajlar16
  • Rep puanı 0
Tşkler
Şuan Offine!
Şuan Offine!
BerserkerTR Yeni Üye
*
Üye

  • Konular0
  • Mesajlar5
  • Rep puanı 0
adamsın


Konu ile Alakalı Benzer Konular
Konular Yazar Yorumlar Okunma Son Yorum
  Her Zaman Şeytan (The Devil All the Time) - 2020 - TR - BRRip XviD | tt7395114 TheSteeL 0 24 11 saat önce
Son Yorum: TheSteeL
Filmin Yayınlanma Tarihi: 2020
Baba Aranıyor (Se busca papá) - 2020 - TR - BRRip XviD | tt12721188 TheSteeL 0 21 11 saat önce
Son Yorum: TheSteeL
Filmin Yayınlanma Tarihi: 1999
Yeşil Yol (The Green Mile) - 1999 - TR - BRRip XviD | tt0120689 BroserBros 2 246 , Saat: 15:54
Son Yorum: Furkan61
Filmin Yayınlanma Tarihi: 2019
Beyaz Kentin Sessizliği (El silencio de la ciudad blanca) - 2019 - TR - BRRip XviD | tt8393332 BroserBros 1 245 , Saat: 15:38
Son Yorum: BroserBros
Filmin Yayınlanma Tarihi: 2014
Frankenstein: Ölümsüzlerin Savaşı (I, Frankenstein) - 2014 - TR - BRRip XviD | tt1418377 BroserBros 2 296 , Saat: 15:29
Son Yorum: BroserBros

Hızlı Menü: