Hoşgeldin, Ziyaretçi: Giriş Yap Üye Ol


Konuyu Oyla:
  • Derecelendirme: 0/5 - 0 oy
  • 1
  • 2
  • 3
  • 4
  • 5
Title: Seni Hala Görüyorum (I Still See You) Türkçe Dublaj BRRip XviD indir
Gösterim Stili
#1
Filmin Yayınlanma Tarihi: 2018 

vizyon tarihi


12 Ekim 2018

imdb puanı


5,8 / 7,000

süre


98 dakika

Editör Puanı


5,5 / 10

Video Format: Avi


Audio Video Interleave (.AVI)

Ses Kodek: MP3


MPEG-1 Audio Layer III (MP3)

sürüm


h263 | BRRip XviD

Boyutlar


0,69



 Seni Hala Görüyorum



Dünyayı hayaletlerin dolaştığı bir yer haline getiren apokaliptik bir olaydan 10 yıl sonra, Roni (Bella Thorne) mezardan gelen bir tehdit mesajı alır. Gizemli sınıf aradaşı Kirk (Richard Harmon) ile güçlerini birleştiren Roni, yaşayanlar ve ölüler arasındaki bağı bulanıklaştıran bir gölge dünyasına iner. Roni burada zamana karşı yarışarak kurnaz bir katili durdurmaya çalışır.

Seni Hala Görüyorum (2018) (I Still See You) Filmi Imdb'den 7,000 kişi tarafından oylandı ve 5,8 puan aldı. Bu film için editör puanı 5,5 olarak belirlendi. İyi Seyirler!

Teknik Detaylar

Kod:
General
Complete name                            : /root/Desktop/3/Seni.Hala.Görüyorum.2018.BRRip.XViD.TR.Filmbol.avi
Format                                   : AVI
Format/Info                              : Audio Video Interleave
File size                                : 693 MiB
Duration                                 : 1h 38mn
Overall bit rate                         : 987 Kbps

Video
ID                                       : 0
Format                                   : MPEG-4 Visual
Format profile                           : Advanced Simple@L5
Format settings, BVOP                    : 2
Format settings, QPel                    : No
Format settings, GMC                     : No warppoints
Format settings, Matrix                  : Default (MPEG)
Codec ID                                 : XVID
Codec ID/Hint                            : XviD
Duration                                 : 1h 38mn
Bit rate                                 : 846 Kbps
Width                                    : 720 pixels
Height                                   : 304 pixels
Display aspect ratio                     : 2.35:1
Frame rate                               : 23.976 (23976/1000) fps
Color space                              : YUV
Chroma subsampling                       : 4:2:0
Bit depth                                : 8 bits
Scan type                                : Progressive
Compression mode                         : Lossy
Bits/(Pixel*Frame)                       : 0.161
Stream size                              : 594 MiB (86%)
Writing library                          : XviD 64

Audio
ID                                       : 1
Format                                   : MPEG Audio
Format version                           : Version 1
Format profile                           : Layer 3
Mode                                     : Joint stereo
Codec ID                                 : 55
Codec ID/Hint                            : MP3
Duration                                 : 1h 38mn
Bit rate mode                            : Constant
Bit rate                                 : 128 Kbps
Channel(s)                               : 2 channels
Sampling rate                            : 48.0 KHz
Compression mode                         : Lossy
Stream size                              : 89.9 MiB (13%)
Alignment                                : Aligned on interleaves
Interleave, duration                     : 24 ms (0.58 video frame)

Film Detayları


 Seni Hala Görüyorum

 Seni Hala Görüyorum

 Seni Hala Görüyorum


Film Fragmanı


Film Detayları


Uptobox ile indir

1Fichier ile indir

Mega linki şuan da gizli. Kullanıma açmak için konuya yorum yapın ve ardından sayfayı yenileyin. Ayrıca bu linki açtığınızda reklamsız olarak erişebileceğinizi unutmayın.

Mega


Mediafire linki şuan da gizli. Kullanıma açmak için konuya yorum yapın ve ardından sayfayı yenileyin. Ayrıca bu linki açtığınızda reklamsız olarak erişebileceğinizi unutmayın.

Mediafire

 
Cevapla
  


Konu ile Alakalı Benzer Konular
Konular Yazar Yorumlar Okunma Son Yorum
Filmin Yayınlanma Tarihi: 2014 Ölüm Alfabesi (Ouija) Türkçe Dublaj BRRip XviD indir BroserBros 1 93 16-02-2020, Saat: 01:31
Son Yorum: filmbolcu
Filmin Yayınlanma Tarihi: 2016 Ölüm Alfabesi: Kötülüğün Başlangıcı Türkçe Dublaj Brrip-Xvid İndir BroserBros 3 1,369 15-02-2020, Saat: 13:00
Son Yorum: pentagramnet
Filmin Yayınlanma Tarihi: 2019 İstilacılar (Snatchers) Türkçe Dublaj BRRip XviD indir BroserBros 0 63 15-02-2020, Saat: 12:56
Son Yorum: BroserBros
Filmin Yayınlanma Tarihi: 2009 Halloween II: Katliam (Hallowwen 2) Türkçe Dublaj BRRip XviD indir BroserBros 0 64 13-02-2020, Saat: 19:22
Son Yorum: BroserBros
Filmin Yayınlanma Tarihi: 2007 Halloween 9 (Cadılar Bayramı) Türkçe Dublaj BRRip XviD İndir BroserBros 1 94 08-02-2020, Saat: 22:22
Son Yorum: BqRs

Hızlı Menü:


Browsing: 1 Ziyaretçi