Filmbol Forum Film İndir BRRip XviD v Senden Beş Adım Uzakta (Five Feet Apart) - 2019 - TR - BRRip XviD
Senden Beş Adım Uzakta (Five Feet Apart) - 2019 - TR - BRRip XviD
BroserBros
Senden Beş Adım Uzakta (Five Feet Apart) - 2019 - TR - BRRip XviD
0
58
  • Derecelendirme: 0/5 - 0 oy
  • 1
  • 2
  • 3
  • 4
  • 5
Konuyu Okuyanlar:1 Ziyaretçi
Şuan Online!
Filmin Yayınlanma Tarihi: 2019 
Şuan Online!
BroserBros Kurucu Admin
*******
Admin

Vizyon Tarihi


15 Mart 2019

imdb puanı


7,2 / 32,500

süre


116 dakika

Editör Puanı


7,0 / 10

Video Format: Avi


Audio Video Interleave (.AVI)

Ses Kodek: MP3


MPEG-1 Audio Layer III (MP3)

sürüm


h263 | BRRip XviD

Boyutlar


1,18 GB



 Senden Beş Adım Uzakta



Five Feet Apart, iki hasta gencin hastanede yollarının kesişmesi ile değişen yaşamlarını konu ediyor. Stella Grant, 17 yaşında olan bir genç kızdır. Bilgisayarına bağlı bir hayat süren Stella, yaşıtları gibi gezip dolaşmak yerine zamanını çoğunu hastanede geçirmek zorundadır. Kistik fibrozis hastası olan genç kız hayatını rutinler, sınırlamalar ve kendi kendini kontrol etmekle geçirir. Fakat genç kızın hayatı oldukça etkileyici bir genç olan Will Newman ile tanışmasıyla bambaşka bir hal alır. Birbirlerinden etkilenmeye başlayan gençlerin önünde büyük bir engel vardır. Will de Stella gibi hastadır ve hastalıkları nedeniyle hayatlarına konulan sınırlamalar aralarına mesafe koymalarını gerektirir. Ancak onlar birlikte vakit geçirmeye devam ettikçe sınırlamaların dışına çıkmaya başlarlar. Will’in süregelen tedavisine karşı koymaya başladığı direnç onların ilişkini de derinden etkiler. Stella, yavaş yavaş Will’i son nefesini verene kadar yaşamak için ikna etmeye çalışır. Her an ölüm tehlikesi altında olsalar da henüz zamanları varken Will ile birlikte istedikleri gibi yaşamaya çalışan Stella, sevdiği insanı kurtarmayı başarabilecek midir?

Senden Beş Adım Uzakta (2019) (Five Feet Apart) Filmi Imdb'den 32,500 kişi tarafından oylandı ve 7,2 puan aldı. Bu film için editör puanı 7,0 olarak belirlendi. İyi Seyirler!

Teknik Detaylar

Kod :
General
Complete name                            : /root/Desktop/2/Senden.Beş.Adım.Uzakta.2019.BRRip.XviD.TR.Filmbol.avi
Format                                  : AVI
Format/Info                              : Audio Video Interleave
File size                                : 1.18 GiB
Duration                                : 1h 56mn
Overall bit rate                        : 1 453 Kbps

Video
ID                                      : 0
Format                                  : MPEG-4 Visual
Format profile                          : Simple@L5
Format settings, BVOP                    : No
Format settings, QPel                    : No
Format settings, GMC                    : No warppoints
Format settings, Matrix                  : Default (H.263)
Codec ID                                : XVID
Codec ID/Hint                            : XviD
Duration                                : 1h 56mn
Bit rate                                : 1 312 Kbps
Width                                    : 720 pixels
Height                                  : 302 pixels
Display aspect ratio                    : 2.40:1
Frame rate                              : 23.976 fps
Color space                              : YUV
Chroma subsampling                      : 4:2:0
Bit depth                                : 8 bits
Scan type                                : Progressive
Compression mode                        : Lossy
Bits/(Pixel*Frame)                      : 0.252
Stream size                              : 1.07 GiB (90%)
Writing library                          : Lavc58.35.100

Audio
ID                                      : 1
Format                                  : MPEG Audio
Format version                          : Version 1
Format profile                          : Layer 3
Mode                                    : Joint stereo
Mode extension                          : MS Stereo
Codec ID                                : 55
Codec ID/Hint                            : MP3
Duration                                : 1h 56mn
Bit rate mode                            : Constant
Bit rate                                : 128 Kbps
Channel(s)                              : 2 channels
Sampling rate                            : 48.0 KHz
Compression mode                        : Lossy
Stream size                              : 106 MiB (9%)
Alignment                                : Aligned on interleaves
Interleave, duration                    : 24 ms (0.58 video frame)

Film Detayları


 Senden Beş Adım Uzakta

 Senden Beş Adım Uzakta

 Senden Beş Adım Uzakta


Film Fragmanı


Film Detayları


Uptobox ile indir

1Fichier ile indir

1Fichier'den İndiremiyor musun? Tıklayın!


Mega ile indir

Bunun için üzgünüz ancak, bu linke sadece premium üyeler erişebilir.

Filmbol Cloud



Konu ile Alakalı Benzer Konular
Konular Yazar Yorumlar Okunma Son Yorum
Filmin Yayınlanma Tarihi: 2014
Transformers: Kayıp Çağ (Transformers: Age of Extinction) - 2014 - TR - BRRip XviD BroserBros 0 22 , Saat: 23:15
Son Yorum: BroserBros
Filmin Yayınlanma Tarihi: 2019
Queen & Slim (Queen ve Slim) - 2019 - TR - BRRip XviD BroserBros 0 18 , Saat: 22:53
Son Yorum: BroserBros
Filmin Yayınlanma Tarihi: 2015
Minyonlar (Minions) - 2015 - TR - BRRip XviD BroserBros 0 6 , Saat: 22:34
Son Yorum: BroserBros
Filmin Yayınlanma Tarihi: 2014
Herkül: Özgürlük Savaşçısı (Hercules) - 2014 - TR - BRRip XviD BroserBros 0 11 , Saat: 18:14
Son Yorum: BroserBros
Filmin Yayınlanma Tarihi: 2017
Justice League: Adalet Birliği (Justice League) - 2017 - TR - BRRip XviD BroserBros 1 31 , Saat: 16:59
Son Yorum: sectechno

Hızlı Menü: