Filmbol Forum Film İndir 1080P v San Francisco'daki Son Siyah Adam (The Last Black Man in San Francisco) - 2019 - TR+ORG - 1080P
Filmbol'da moderatör olmak ister misiniz? Bizimle iletişime geçmek için tıklayın!
San Francisco'daki Son Siyah Adam (The Last Black Man in San Francisco) - 2019 - TR+ORG - 1080P
BroserBros
San Francisco'daki Son Siyah Adam (The Last Black Man in San Francisco) - 2019 - TR+ORG - 1080P
0
40
  • Derecelendirme: 0/5 - 0 oy
  • 1
  • 2
  • 3
  • 4
  • 5
Konuyu Okuyanlar:2 Ziyaretçi
Şuan Online!
Filmin Yayınlanma Tarihi: 2019 
Şuan Online!
BroserBros Kurucu Admin
*******
Admin

Vizyon Tarihi


07 Haziran 2019

imdb puanı


7,3 / 15,000

süre


121 dakika

Editör Puanı


6,5 / 10

Video Format: Mkv


Matroska (.MKV)

Ses Kodek: AC3


Audio Coding 3 (AC3)

sürüm


x264 | 1080P | BluRay

Boyutlar


2,10 GB



 San Francisco'daki Son Siyah Adam



San Francisco'da yaşayan gen Jimmie şehre bir türlü alışamaz ve kendini o şehre ait hissetmez. Bu duygudan yada şehirden kaçması gereken Jim'in büyük hayalleri vardır ve önemli bir karar vermek üzeredir...

San Francisco'daki Son Siyah Adam (2019) (The Last Black Man in San Francisco) Filmi Imdb'den 15,000 kişi tarafından oylandı ve 7,3 puan aldı. Bu film için editör puanı 6,5 olarak belirlendi. İyi Seyirler!

Teknik Detaylar

Kod :
General
Unique ID                                : 124336946244317478122281750848877198642 (0x5D8A6CBF77A367C583E034C8EFE57D32)
Complete name                            : /root/Desktop/3/San.Franciscodaki.Son.Siyah.Adam.2019.1080p.BluRay.x264.TR.ENG.Filmbol.mkv
Format                                  : Matroska
Format version                          : Version 4 / Version 2
File size                                : 2.10 GiB
Duration                                : 2h 0mn
Overall bit rate                        : 2 485 Kbps
Movie name                              : San Francisco'daki Son Siyah Adam - The Last Black Man In San Francisco - 2019 | Filmbol.org
Encoded date                            : UTC 2020-11-20 10:59:45
Writing application                      : mkvmerge v8.8.0 ('Wind at my back') 64bit
Writing library                          : libebml v1.3.3 + libmatroska v1.4.4

Video
ID                                      : 1
Format                                  : AVC
Format/Info                              : Advanced Video Codec
Format profile                          : High@L4.1
Format settings, CABAC                  : Yes
Format settings, ReFrames                : 4 frames
Codec ID                                : V_MPEG4/ISO/AVC
Duration                                : 2h 0mn
Bit rate                                : 2 100 Kbps
Width                                    : 1 792 pixels
Height                                  : 1 072 pixels
Display aspect ratio                    : 5:3
Frame rate mode                          : Constant
Frame rate                              : 23.976 (24000/1001) fps
Color space                              : YUV
Chroma subsampling                      : 4:2:0
Bit depth                                : 8 bits
Scan type                                : Progressive
Bits/(Pixel*Frame)                      : 0.046
Stream size                              : 1.77 GiB (84%)
Title                                    : San Francisco'daki Son Siyah Adam - The Last Black Man In San Francisco - 2019 | Filmbol.org
Writing library                          : x264 core 157
Encoding settings                        : cabac=1 / ref=4 / deblock=1:-1:-1 / analyse=0x3:0x133 / me=umh / subme=9 / psy=1 / psy_rd=1.00:0.15 / mixed_ref=1 / me_range=24 / chroma_me=1 / trellis=2 / 8x8dct=1 / cqm=0 / deadzone=21,11 / fast_pskip=0 / chroma_qp_offset=-3 / threads=18 / lookahead_threads=1 / sliced_threads=0 / nr=0 / decimate=1 / interlaced=0 / bluray_compat=0 / constrained_intra=0 / bframes=3 / b_pyramid=2 / b_adapt=2 / b_bias=0 / direct=3 / weightb=1 / open_gop=0 / weightp=2 / keyint=250 / keyint_min=23 / scenecut=40 / intra_refresh=0 / rc_lookahead=60 / rc=2pass / mbtree=1 / bitrate=2100 / ratetol=1.0 / qcomp=0.60 / qpmin=0 / qpmax=69 / qpstep=4 / cplxblur=20.0 / qblur=0.5 / vbv_maxrate=31250 / vbv_bufsize=31250 / nal_hrd=none / filler=0 / ip_ratio=1.40 / aq=1:1.00
Default                                  : Yes
Forced                                  : No

Audio #1
ID                                      : 2
Format                                  : AC-3
Format/Info                              : Audio Coding 3
Mode extension                          : CM (complete main)
Format settings, Endianness              : Big
Codec ID                                : A_AC3
Duration                                : 2h 0mn
Bit rate mode                            : Constant
Bit rate                                : 192 Kbps
Channel(s)                              : 2 channels
Channel positions                        : Front: L R
Sampling rate                            : 48.0 KHz
Frame rate                              : 31.250 fps (1536 spf)
Compression mode                        : Lossy
Stream size                              : 166 MiB (8%)
Title                                    : San Francisco'daki Son Siyah Adam - The Last Black Man In San Francisco - 2019 | Filmbol.org
Language                                : Turkish
Default                                  : Yes
Forced                                  : No

Audio #2
ID                                      : 3
Format                                  : AC-3
Format/Info                              : Audio Coding 3
Mode extension                          : CM (complete main)
Format settings, Endianness              : Big
Codec ID                                : A_AC3
Duration                                : 2h 0mn
Bit rate mode                            : Constant
Bit rate                                : 192 Kbps
Channel(s)                              : 2 channels
Channel positions                        : Front: L R
Sampling rate                            : 48.0 KHz
Frame rate                              : 31.250 fps (1536 spf)
Compression mode                        : Lossy
Stream size                              : 166 MiB (8%)
Title                                    : San Francisco'daki Son Siyah Adam - The Last Black Man In San Francisco - 2019 | Filmbol.org
Language                                : English
Default                                  : No
Forced                                  : No

Text
ID                                      : 4
Format                                  : UTF-8
Codec ID                                : S_TEXT/UTF8
Codec ID/Info                            : UTF-8 Plain Text
Duration                                : 1h 52mn
Bit rate                                : 51 bps
Count of elements                        : 1461
Stream size                              : 42.6 KiB (0%)
Title                                    : San Francisco'daki Son Siyah Adam - The Last Black Man In San Francisco - 2019 | Filmbol.org
Language                                : Turkish
Default                                  : No
Forced                                  : No

Film Detayları


 San Francisco'daki Son Siyah Adam

 San Francisco'daki Son Siyah Adam

 San Francisco'daki Son Siyah Adam


Film Fragmanı


Film Detayları

Uptobox ile indir

1Fichier ile indir

1Fichier'den İndiremiyor musun? Tıklayın!


Mega ile indir

Bunun için üzgünüz ancak, bu linke sadece premium üyeler erişebilir.

Filmbol Cloud



Konu ile Alakalı Benzer Konular
Konular Yazar Yorumlar Okunma Son Yorum
Filmin Yayınlanma Tarihi: 2019
Tolkien (2019) Türkçe Dublaj BLURAY m1080P İndir BroserBros 4 428 , Saat: 15:29
Son Yorum: Rocklion17
Filmin Yayınlanma Tarihi: 2020
Deathstroke Şövalyeler ve Ejderhalar (Deathstroke Knights & Dragons: The Movie) - 2020 - TR+ORG - 1080P BroserBros 0 44 23-11-2020, Saat: 18:31
Son Yorum: BroserBros
Filmin Yayınlanma Tarihi: 2019
15 Dakika Savaş (L'intervention) - 2019 - TR+ORG - 1080P BroserBros 0 46 23-11-2020, Saat: 17:42
Son Yorum: BroserBros
Filmin Yayınlanma Tarihi: 2020
Sürprizli Gece (The Sleepover) - 2020 - TR+ORG - 1080P BroserBros 0 46 23-11-2020, Saat: 16:19
Son Yorum: BroserBros
Filmin Yayınlanma Tarihi: 2020
Feride (Feride) - 2020 - TR+ORG - 1080P BroserBros 0 77 22-11-2020, Saat: 20:24
Son Yorum: BroserBros

Hızlı Menü: