Filmbol Forum Film İndir 720P v Saklı Gerçekler (The Truth - La vérité) - 2019 - TR+ORG - 720P
Moderatör Alımları Başladı! Başvuru yapmak için tıklayın.
Filmbol Premium'da %50'e varan indirim fırsatı!
Saklı Gerçekler (The Truth - La vérité) - 2019 - TR+ORG - 720P
BroserBros
Saklı Gerçekler (The Truth - La vérité) - 2019 - TR+ORG - 720P
0
97
  • Derecelendirme: 0/5 - 0 oy
  • 1
  • 2
  • 3
  • 4
  • 5
Konuyu Okuyanlar:1 Ziyaretçi
Şuan Online!
Filmin Yayınlanma Tarihi: 2019 
Şuan Online!
BroserBros Kurucu Admin
*******
Admin

Vizyon Tarihi


17 Ocak 2020

imdb puanı


6,4 / 3,500

süre


106 dakika

Editör Puanı


6,0 / 10

Video Format: Mkv


Matroska (.MKV)

Ses Kodek: AC3


Audio Coding 3 (AC3)

sürüm


x264 | 720P | BluRay

Boyutlar


1,15 GB



 Saklı Gerçekler



Annesi büyük bir yıldız olan Lumir hayatını kaliteli bir şekilde geçirmiş ve evlenmiştir. Annesi ise artık yaşlanmış ve sanatı bırakmıştır. Potansiyeli git gide düşen Fabienne Dangeville, hayatı hakkında bir kitap yazar ve yayımlar. Kızı kitabı okuduğunda annesi hiç de doğruları yazmadığını anlar ve hemen annesinin yanına gitmek üzere yola koyulur. Vardığında ise aslında annesinin hayatı hakkında bildiklerinin yanlış olabileceğini anlar ve büyük bir şok geçirir...

Saklı Gerçekler (2019) (The Truth - La vérité) Filmi Imdb'den 3,500 kişi tarafından oylandı ve 6,4 puan aldı. Bu film için editör puanı 6,0 olarak belirlendi. İyi Seyirler!

Teknik Detaylar

Kod :
General
Unique ID                                : 319886598092525873502235844090760490009 (0xF0A7EAF56DEFB9EA8A4622F5EEDF6C19)
Complete name                            : /root/Desktop/6/Saklı.Gerçekler.2019.720p.BluRay.x264.TR.FR.Filmbol.mkv
Format                                  : Matroska
Format version                          : Version 4 / Version 2
File size                                : 1.15 GiB
Duration                                : 1h 47mn
Overall bit rate                        : 1 536 Kbps
Movie name                              : The Truth - Saklı Gerçekler - 2019 | Filmbol.org
Encoded date                            : UTC 2020-07-25 08:53:54
Writing application                      : mkvmerge v8.8.0 ('Wind at my back') 64bit
Writing library                          : libebml v1.3.3 + libmatroska v1.4.4

Video
ID                                      : 1
Format                                  : AVC
Format/Info                              : Advanced Video Codec
Format profile                          : High@L4.1
Format settings, CABAC                  : Yes
Format settings, ReFrames                : 4 frames
Codec ID                                : V_MPEG4/ISO/AVC
Duration                                : 1h 47mn
Bit rate                                : 1 150 Kbps
Width                                    : 1 280 pixels
Height                                  : 694 pixels
Display aspect ratio                    : 1.85:1
Frame rate mode                          : Constant
Frame rate                              : 24.000 fps
Color space                              : YUV
Chroma subsampling                      : 4:2:0
Bit depth                                : 8 bits
Scan type                                : Progressive
Bits/(Pixel*Frame)                      : 0.054
Stream size                              : 885 MiB (75%)
Title                                    : Filmbol.org
Writing library                          : x264 core 158
Encoding settings                        : cabac=1 / ref=4 / deblock=1:-1:-1 / analyse=0x3:0x133 / me=umh / subme=9 / psy=1 / psy_rd=1.00:0.15 / mixed_ref=1 / me_range=24 / chroma_me=1 / trellis=2 / 8x8dct=1 / cqm=0 / deadzone=21,11 / fast_pskip=0 / chroma_qp_offset=-3 / threads=12 / lookahead_threads=1 / sliced_threads=0 / nr=0 / decimate=1 / interlaced=0 / bluray_compat=0 / constrained_intra=0 / bframes=3 / b_pyramid=2 / b_adapt=2 / b_bias=0 / direct=3 / weightb=1 / open_gop=0 / weightp=2 / keyint=250 / keyint_min=23 / scenecut=40 / intra_refresh=0 / rc_lookahead=60 / rc=2pass / mbtree=1 / bitrate=1150 / ratetol=1.0 / qcomp=0.60 / qpmin=0 / qpmax=69 / qpstep=4 / cplxblur=20.0 / qblur=0.5 / vbv_maxrate=31250 / vbv_bufsize=31250 / nal_hrd=none / filler=0 / ip_ratio=1.40 / aq=1:1.00
Default                                  : Yes
Forced                                  : No

Audio #1
ID                                      : 2
Format                                  : AC-3
Format/Info                              : Audio Coding 3
Mode extension                          : CM (complete main)
Format settings, Endianness              : Big
Codec ID                                : A_AC3
Duration                                : 1h 47mn
Bit rate mode                            : Constant
Bit rate                                : 192 Kbps
Channel(s)                              : 2 channels
Channel positions                        : Front: L R
Sampling rate                            : 48.0 KHz
Frame rate                              : 31.250 fps (1536 spf)
Compression mode                        : Lossy
Stream size                              : 148 MiB (13%)
Title                                    : Filmbol.org
Language                                : Turkish
Default                                  : Yes
Forced                                  : No

Audio #2
ID                                      : 3
Format                                  : AC-3
Format/Info                              : Audio Coding 3
Mode extension                          : CM (complete main)
Format settings, Endianness              : Big
Codec ID                                : A_AC3
Duration                                : 1h 47mn
Bit rate mode                            : Constant
Bit rate                                : 192 Kbps
Channel(s)                              : 2 channels
Channel positions                        : Front: L R
Sampling rate                            : 48.0 KHz
Frame rate                              : 31.250 fps (1536 spf)
Compression mode                        : Lossy
Stream size                              : 148 MiB (13%)
Title                                    : Filmbol.org
Language                                : French
Default                                  : No
Forced                                  : No

Film Detayları


 Saklı Gerçekler

 Saklı Gerçekler

 Saklı Gerçekler


Film Fragmanı


Film Detayları

Uptobox ile indir

1Fichier ile indir

1Fichier'den İndiremiyor musun? Tıklayın!


Mega ile indir

Bunun için üzgünüz ancak, bu linke sadece premium üyeler erişebilir.

Filmbol Cloud



Konu ile Alakalı Benzer Konular
Konular Yazar Yorumlar Okunma Son Yorum
Filmin Yayınlanma Tarihi: 2020
Vahşetin Çağrısı (The Call of the Wild) - 2020 - TR+ORG - 720P BroserBros 0 24 , Saat: 20:46
Son Yorum: BroserBros
Filmin Yayınlanma Tarihi: 2019
The Gentlemen (The Gentlemen) - 2019 - TR+ORG - 720P BroserBros 0 21 , Saat: 20:33
Son Yorum: BroserBros
Filmin Yayınlanma Tarihi: 2019
Sokak Dansı: Çin (Step Up China) - 2019 - TR+ORG - 720P BroserBros 0 22 , Saat: 20:07
Son Yorum: BroserBros
Filmin Yayınlanma Tarihi: 2018
Gölge Savaşçı (Shadow - Ying) - 2018 - TR+ORG - 720P BroserBros 0 80 26-07-2020, Saat: 12:56
Son Yorum: BroserBros
Filmin Yayınlanma Tarihi: 2019
Savunma Sanatı (The Art of Self-Defense) - 2019 - TR+ORG - 720P BroserBros 0 86 26-07-2020, Saat: 12:35
Son Yorum: BroserBros

Hızlı Menü: