Filmbol Forum Film İndir BRRip XviD v Saklı Gerçekler (The Truth - La vérité) - 2019 - TR - BRRip XviD
Moderatör Alımları Başladı! Başvuru yapmak için tıklayın.
Filmbol Premium'da %50'e varan indirim fırsatı!
Saklı Gerçekler (The Truth - La vérité) - 2019 - TR - BRRip XviD
BroserBros
Saklı Gerçekler (The Truth - La vérité) - 2019 - TR - BRRip XviD
0
108
  • Derecelendirme: 0/5 - 0 oy
  • 1
  • 2
  • 3
  • 4
  • 5
Konuyu Okuyanlar:1 Ziyaretçi
Şuan Online!
Filmin Yayınlanma Tarihi: 2019 
Şuan Online!
BroserBros Kurucu Admin
*******
Admin

Vizyon Tarihi


17 Ocak 2020

imdb puanı


6,4 / 3,500

süre


106 dakika

Editör Puanı


6,0 / 10

Video Format: Avi


Audio Video Interleave (.AVI)

Ses Kodek: MP3


MPEG-1 Audio Layer III (MP3)

sürüm


h263 | BDRip XviD

Boyutlar


1,27 GB



 Saklı Gerçekler



Annesi büyük bir yıldız olan Lumir hayatını kaliteli bir şekilde geçirmiş ve evlenmiştir. Annesi ise artık yaşlanmış ve sanatı bırakmıştır. Potansiyeli git gide düşen Fabienne Dangeville, hayatı hakkında bir kitap yazar ve yayımlar. Kızı kitabı okuduğunda annesi hiç de doğruları yazmadığını anlar ve hemen annesinin yanına gitmek üzere yola koyulur. Vardığında ise aslında annesinin hayatı hakkında bildiklerinin yanlış olabileceğini anlar ve büyük bir şok geçirir...

Saklı Gerçekler (2019) (The Truth - La vérité) Filmi Imdb'den 3,500 kişi tarafından oylandı ve 6,4 puan aldı. Bu film için editör puanı 6,0 olarak belirlendi. İyi Seyirler!

Teknik Detaylar

Kod :
General
Complete name                            : /root/Desktop/6/Saklı.Gerçekler.2019.BDRip.XViD.TR.Filmbol.avi
Format                                  : AVI
Format/Info                              : Audio Video Interleave
File size                                : 1.27 GiB
Duration                                : 1h 47mn
Overall bit rate                        : 1 691 Kbps

Video
ID                                      : 0
Format                                  : MPEG-4 Visual
Format profile                          : Advanced Simple@L5
Format settings, BVOP                    : 1
Format settings, QPel                    : No
Format settings, GMC                    : No warppoints
Format settings, Matrix                  : Custom
Codec ID                                : XVID
Codec ID/Hint                            : XviD
Duration                                : 1h 47mn
Bit rate                                : 1 550 Kbps
Width                                    : 704 pixels
Height                                  : 384 pixels
Display aspect ratio                    : 1.85:1
Frame rate                              : 24.000 fps
Color space                              : YUV
Chroma subsampling                      : 4:2:0
Bit depth                                : 8 bits
Scan type                                : Progressive
Compression mode                        : Lossy
Bits/(Pixel*Frame)                      : 0.239
Stream size                              : 1.16 GiB (92%)
Writing library                          : XviD 73

Audio
ID                                      : 1
Format                                  : MPEG Audio
Format version                          : Version 1
Format profile                          : Layer 3
Mode                                    : Joint stereo
Mode extension                          : MS Stereo
Codec ID                                : 55
Codec ID/Hint                            : MP3
Duration                                : 1h 47mn
Bit rate mode                            : Constant
Bit rate                                : 128 Kbps
Channel(s)                              : 2 channels
Sampling rate                            : 48.0 KHz
Compression mode                        : Lossy
Stream size                              : 98.5 MiB (8%)
Alignment                                : Aligned on interleaves
Interleave, duration                    : 24 ms (0.58 video frame)
Writing library                          : LAME3.99.5

Film Detayları


 Saklı Gerçekler

 Saklı Gerçekler

 Saklı Gerçekler


Film Fragmanı


Film Detayları


Uptobox ile indir

1Fichier ile indir

1Fichier'den İndiremiyor musun? Tıklayın!


Mega ile indir

Bunun için üzgünüz ancak, bu linke sadece premium üyeler erişebilir.

Filmbol Cloud



Konu ile Alakalı Benzer Konular
Konular Yazar Yorumlar Okunma Son Yorum
Filmin Yayınlanma Tarihi: 2010
Toprak Altında (Buried) - 2010 - TR - BRRip XviD BroserBros 1 90 , Saat: 04:18
Son Yorum: sectechno
Filmin Yayınlanma Tarihi: 2020
Vahşetin Çağrısı (The Call of the Wild) - 2020 - TR - BRRip XviD BroserBros 0 26 , Saat: 20:46
Son Yorum: BroserBros
Filmin Yayınlanma Tarihi: 2019
The Gentlemen (The Gentlemen) - 2019 - TR - BRRip XviD BroserBros 0 27 , Saat: 20:33
Son Yorum: BroserBros
Filmin Yayınlanma Tarihi: 2019
Sokak Dansı: Çin (Step Up China) - 2019 - TR - BRRip XviD BroserBros 0 27 , Saat: 20:06
Son Yorum: BroserBros
Filmin Yayınlanma Tarihi: 2018
Gölge Savaşçı (Shadow - Ying) - 2018 - TR - BRRip XviD BroserBros 0 102 26-07-2020, Saat: 12:56
Son Yorum: BroserBros

Hızlı Menü: