Hoşgeldin, Ziyaretçi: Giriş Yap Üye Ol


stats
Adblock'u kapattıysanız tıklayın.
Hoşgeldiniz!
Filmbol'u tercih ettiğiniz için teşekkürler, ancak ablock kullanarak devam edemezsiniz.
Merak etmeyin. Heryerden ardı ardına çıkan reklamlar görmeyeceksiniz :)

Sadece site içi 1 reklam göreceksin ve bu site gezintini etkilemeyecek.
Konuyu Oyla:
  • Derecelendirme: 0/5 - 0 oy
  • 1
  • 2
  • 3
  • 4
  • 5
Title: Saklambaç (Ready or Not) Türkçe Dublaj Brrip Xvid İndir
Gösterim Stili
#1
Filmin Yayınlanma Tarihi: 2019 

indirme türü


Bulut + Premium

vizyon tarihi


11 Ekim 2019

Boyutlar


1,01

diller


[TR]

altyazilar


KISIM [Eklenebilir]

Video Format: Avi


Audio Video Interleave (.AVI)

Video Detay


MPEG-4, 1365Kbps, 0,93GB

imdb puanı


6,9 / 10,0 / 34,000

süre


95 dakika

Ses Kodek: MP3


MPEG-1 Audio Layer III (MP3)

Ses Detay


128 Kbps, 2 Kanal, 88Mb

Editör Puanı


6,4

Genislik Yukseklik


720-302

sürüm


h263 | Brrip Xvid





Saklambac


Film Detayları

Saklambaç, zengin bir adam ile evlenen genç bir kadının yaşadıklarını konu ediyor. Grace ve Alex, mutlu giden birlikteliklerini evlilikle taçlandırmak ister. Tüm hazırlıklarını tamamlayan çift, Alex’in ailesinin malikanesinde evlenir. Düğünde her şey çiftin istediği gibi gerçekleşir ancak Grace için yapılan bir plan vardır. Grace, daha gelinliğini çıkaramadan, eşinin ailesi tarafından geleneksel aile oyunu dedikleri oyunu oynamak için çağırılır. Eşinin ailesinin isteğini geri çevirmeyen Grace, aile bireyleri ile birlikte masaya oturur. Oyunu seçme hakkı ailenin yeni üyesi Grace’e verilir ve genç kadın nadiren çıkan saklambaç kartını seçer. Oyunun kuralına göre Grace’in Alex’i geride bırakıp saklanması ve sabah olmadan diğerlerinin onu bulması gerekir. Ancak bu oyun bir süre sonra Grace için hayatta kalmak için mücadele ettiği korkunç bir savaşa dönüşür.

Saklambaç (Ready or Not) Filmi Imdb'den 34,000 kişi tarafından oylandı ve 6,9 puan aldı. Bu film için editör puanı 6,6 olarak belirlendi. İyi Seyirler!


Teknik Detaylar


Kod:
General
Complete name                            : Saklambaç.2019.BRRip.XviD.TR.Filmbol.avi
Format                                   : AVI
Format/Info                              : Audio Video Interleave
File size                                : 1.00 GiB
Duration                                 : 1h 35mn
Overall bit rate                         : 1 507 Kbps

Video
ID                                       : 0
Format                                   : MPEG-4 Visual
Format profile                           : Simple@L5
Format settings, BVOP                    : No
Format settings, QPel                    : No
Format settings, GMC                     : No warppoints
Format settings, Matrix                  : Default (H.263)
Codec ID                                 : XVID
Codec ID/Hint                            : XviD
Duration                                 : 1h 35mn
Bit rate                                 : 1 365 Kbps
Width                                    : 720 pixels
Height                                   : 302 pixels
Display aspect ratio                     : 2.40:1
Frame rate                               : 23.976 fps
Color space                              : YUV
Chroma subsampling                       : 4:2:0
Bit depth                                : 8 bits
Scan type                                : Progressive
Compression mode                         : Lossy
Bits/(Pixel*Frame)                       : 0.262
Stream size                              : 932 MiB (91%)
Writing library                          : Lavc58.35.100

Audio
ID                                       : 1
Format                                   : MPEG Audio
Format version                           : Version 1
Format profile                           : Layer 3
Mode                                     : Joint stereo
Mode extension                           : MS Stereo
Codec ID                                 : 55
Codec ID/Hint                            : MP3
Duration                                 : 1h 35mn
Bit rate mode                            : Constant
Bit rate                                 : 128 Kbps
Channel(s)                               : 2 channels
Sampling rate                            : 48.0 KHz
Compression mode                         : Lossy
Stream size                              : 87.3 MiB (8%)
Alignment                                : Aligned on interleaves
Interleave, duration                     : 24 ms (0.58 video frame)

Film Detayları


Saklambac

Saklambac

Saklambac


Film Fragmanı


Film Detayları

Brrip İndir



Uptobox ile indir

1Fichier ile indir

LetsUpload ile indir

Mega linki şuan da gizli. Kullanıma açmak için konuya yorum yapın ve ardından sayfayı yenileyin. Ayrıca bu linki açtığınızda reklamsız olarak erişebileceğinizi unutmayın.

Mega


Mediafire linki şuan da gizli. Kullanıma açmak için konuya yorum yapın ve ardından sayfayı yenileyin. Ayrıca bu linki açtığınızda reklamsız olarak erişebileceğinizi unutmayın.

Mediafire

 
Cevapla
#2
teşekkürler..
 
Cevapla
  


Konu ile Alakalı Benzer Konular
Konular Yazar Yorumlar Okunma Son Yorum
Filmin Yayınlanma Tarihi: 2016 Uyumsuz Serisi: Yandaş Bölüm 1 (Allegiant) Türkçe Dublaj Brrip-Xvid İndir BroserBros 2 1,655 12-12-2019, Saat: 18:30
Son Yorum: LNTBRFLMCN001
Filmin Yayınlanma Tarihi: 2018 Kaçış Planı 2: Hades (Escape Plan 2) Türkçe Dublaj Brrip Xvid İndir BroserBros 3 244 08-12-2019, Saat: 14:45
Son Yorum: besenci
Filmin Yayınlanma Tarihi: 2019 Annabelle 3 (Annabelle Comes Home) Türkçe Dublaj Brrip Xvid İndir BroserBros 0 177 10-11-2019, Saat: 06:57
Son Yorum: BroserBros
Filmin Yayınlanma Tarihi: 2018 El Royale'de Zor Zamanlar (Bad Times at the El Royale) Türkçe Dublaj Brrip-Xvid İndir DRMOV 0 361 12-02-2019, Saat: 11:17
Son Yorum: DRMOV
Filmin Yayınlanma Tarihi: 2018 Öykü (The Tale) Türkçe Dublaj Brrip-Xvid İndir BroserBros 0 495 23-08-2018, Saat: 20:47
Son Yorum: BroserBros

Hızlı Menü:


Browsing: 1 Ziyaretçi