Filmbol Forum Film İndir BRRip XviD v Saka Kuşu (The Goldfinch) Türkçe Dublaj BRRip XviD İndir
Moderatör Alımları Başladı! Başvuru yapmak için tıklayın.
Filmbol Premium'da %50'e varan indirim fırsatı!
Saka Kuşu (The Goldfinch) Türkçe Dublaj BRRip XviD İndir
BroserBros
Saka Kuşu (The Goldfinch) Türkçe Dublaj BRRip XviD İndir
0
245
  • Derecelendirme: 0/5 - 0 oy
  • 1
  • 2
  • 3
  • 4
  • 5
Konuyu Okuyanlar:1 Ziyaretçi
Şuan Online!
Filmin Yayınlanma Tarihi: 2019 
Şuan Online!
BroserBros Kurucu Admin
*******
Admin

Vizyon Tarihi


27 Eylül 2019

imdb puanı


6,2 / 10,000

süre


149 dakika

Editör Puanı


6,5 / 10

Video Format: Avi


Audio Video Interleave (.AVI)

Ses Kodek: MP3


MPEG-1 Audio Layer III (MP3)

sürüm


h263 | BRRip XviD

Boyutlar


1,55



 Saka Kuşu



The Goldfinch, annesinin öldürüldüğü müzeden paha biçilemez bir sanat eseri çalan bir çocuğun hikayesini konu ediyor. 13 yaşındaki Theodore Decker'ın hayatı, annesinin Metropolitan Müzesi'ne düzenlenen bir terörist saldırısında öldürülmesinin ardından alt üst olur. Theodore, tüm bu karmaşanın ortasında The Goldfinch adı verilen paha biçilemez bir sanat eserini çalar. Theodore'un annesinin bombalanma sonucu öldürüldüğü o günden geriye elinde kalan tek somut şey The Goldfinch’tir. Kafesine zincirlenmiş bir Saka Kuşu portresi olan The Goldfinch, Theodore’un hayatını yeniden inşa etme sürecinde önemli bir yer edinecektir.

Saka Kuşu (2019) (The Goldfinch) Filmi Imdb'den 10,000 kişi tarafından oylandı ve 6,2 puan aldı. Bu film için editör puanı 6,5 olarak belirlendi. İyi Seyirler!

Teknik Detaylar

Kod :
General Complete name                            : /root/Desktop/4/Saka.Kuşu.2019.BRRip.XviD.TR.Filmbol.avi Format                                   : AVI Format/Info                              : Audio Video Interleave File size                                : 1.55 GiB Duration                                 : 2h 29mn Overall bit rate                         : 1 485 Kbps  Video ID                                       : 0 Format                                   : MPEG-4 Visual Format profile                           : Simple@L5 Format settings, BVOP                    : No Format settings, QPel                    : No Format settings, GMC                     : No warppoints Format settings, Matrix                  : Default (H.263) Codec ID                                 : XVID Codec ID/Hint                            : XviD Duration                                 : 2h 29mn Bit rate                                 : 1 344 Kbps Width                                    : 720 pixels Height                                   : 392 pixels Display aspect ratio                     : 1.85:1 Frame rate                               : 23.976 fps Color space                              : YUV Chroma subsampling                       : 4:2:0 Bit depth                                : 8 bits Scan type                                : Progressive Compression mode                         : Lossy Bits/(Pixel*Frame)                       : 0.199 Stream size                              : 1.40 GiB (91%) Writing library                          : Lavc58.35.100  Audio ID                                       : 1 Format                                   : MPEG Audio Format version                           : Version 1 Format profile                           : Layer 3 Mode                                     : Joint stereo Mode extension                           : MS Stereo Codec ID                                 : 55 Codec ID/Hint                            : MP3 Duration                                 : 2h 29mn Bit rate mode                            : Constant Bit rate                                 : 128 Kbps Channel(s)                               : 2 channels Sampling rate                            : 48.0 KHz Compression mode                         : Lossy Stream size                              : 137 MiB (9%) Alignment                                : Aligned on interleaves Interleave, duration                     : 24 ms (0.58 video frame)

Film Detayları


 Saka Kuşu

 Saka Kuşu

 Saka Kuşu


Film Fragmanı


Film Detayları

Brrip İndir

Uptobox ile indir

1Fichier ile indir

1Fichier'den İndiremiyor musun? Tıklayın!


Mega ile indir

MediaFire ile indir



Konu ile Alakalı Benzer Konular
Konular Yazar Yorumlar Okunma Son Yorum
Filmin Yayınlanma Tarihi: 2014
Lucy (2014) Türkçe Dublaj BRRip XviD İndir BroserBros 1 262 19-09-2020, Saat: 00:56
Son Yorum: sectechno
Filmin Yayınlanma Tarihi: 2020
The Hunt (Av) - 2020 - TR - BRRip XviD BroserBros 0 312 18-09-2020, Saat: 19:28
Son Yorum: BroserBros
Filmin Yayınlanma Tarihi: 2018
Gözbebeğim (Pupille) - 2018 - TR - BRRip XviD BroserBros 0 312 18-09-2020, Saat: 13:02
Son Yorum: BroserBros
Filmin Yayınlanma Tarihi: 2019
Umut Vadisi (Hope Gap) - 2019 - TR - BRRip XviD BroserBros 0 313 18-09-2020, Saat: 12:50
Son Yorum: BroserBros
Filmin Yayınlanma Tarihi: 2019
Cep Herkülü: Naim Süleymanoğlu (Cep Herkülü: Naim Süleymanoğlu) - 2019 - TR - BRRip XviD BroserBros 0 114 15-09-2020, Saat: 21:51
Son Yorum: BroserBros

Hızlı Menü: