Filmbol Forum Film İndir BRRip XviD v Saka Kuşu (The Goldfinch) Türkçe Dublaj BRRip XviD İndir
Mega linklerinin şikayet edilmemesi için global erişime kapatıp sadece yorum yapanlara açıyoruz. Bu linkleri gizleme işlemini mecburen yapıyoruz ve yorum yapmanızın siteye değil size faydası vardır. Teşekürler yazmayı çok görüp, Random/Spam mesajlar atarak Mega linklerini açmaya çalışan kullanıcılara önce süresiz ban, devam ederse IP ban atacağız.
Filmbol'da moderatör olmak ister misiniz? Bizimle iletişime geçmek için tıklayın!
Saka Kuşu (The Goldfinch) Türkçe Dublaj BRRip XviD İndir
BroserBros
Saka Kuşu (The Goldfinch) Türkçe Dublaj BRRip XviD İndir
0
288
  • Derecelendirme: 0/5 - 0 oy
  • 1
  • 2
  • 3
  • 4
  • 5
Konuyu Okuyanlar:1 Ziyaretçi
Şuan Online!
Filmin Yayınlanma Tarihi: 2019 
WWW
Şuan Online!
BroserBros Kurucu Admin
*******
Admin








 Saka Kuşu



The Goldfinch, annesinin öldürüldüğü müzeden paha biçilemez bir sanat eseri çalan bir çocuğun hikayesini konu ediyor. 13 yaşındaki Theodore Decker'ın hayatı, annesinin Metropolitan Müzesi'ne düzenlenen bir terörist saldırısında öldürülmesinin ardından alt üst olur. Theodore, tüm bu karmaşanın ortasında The Goldfinch adı verilen paha biçilemez bir sanat eserini çalar. Theodore'un annesinin bombalanma sonucu öldürüldüğü o günden geriye elinde kalan tek somut şey The Goldfinch’tir. Kafesine zincirlenmiş bir Saka Kuşu portresi olan The Goldfinch, Theodore’un hayatını yeniden inşa etme sürecinde önemli bir yer edinecektir.

Saka Kuşu (2019) (The Goldfinch) Filmi Imdb'den 10,000 kişi tarafından oylandı ve 6,2 puan aldı. Bu film için editör puanı 6,5 olarak belirlendi. İyi Seyirler!

Teknik Detaylar

Kod :
General Complete name                            : /root/Desktop/4/Saka.Kuşu.2019.BRRip.XviD.TR.Filmbol.avi Format                                   : AVI Format/Info                              : Audio Video Interleave File size                                : 1.55 GiB Duration                                 : 2h 29mn Overall bit rate                         : 1 485 Kbps  Video ID                                       : 0 Format                                   : MPEG-4 Visual Format profile                           : [email protected] Format settings, BVOP                    : No Format settings, QPel                    : No Format settings, GMC                     : No warppoints Format settings, Matrix                  : Default (H.263) Codec ID                                 : XVID Codec ID/Hint                            : XviD Duration                                 : 2h 29mn Bit rate                                 : 1 344 Kbps Width                                    : 720 pixels Height                                   : 392 pixels Display aspect ratio                     : 1.85:1 Frame rate                               : 23.976 fps Color space                              : YUV Chroma subsampling                       : 4:2:0 Bit depth                                : 8 bits Scan type                                : Progressive Compression mode                         : Lossy Bits/(Pixel*Frame)                       : 0.199 Stream size                              : 1.40 GiB (91%) Writing library                          : Lavc58.35.100  Audio ID                                       : 1 Format                                   : MPEG Audio Format version                           : Version 1 Format profile                           : Layer 3 Mode                                     : Joint stereo Mode extension                           : MS Stereo Codec ID                                 : 55 Codec ID/Hint                            : MP3 Duration                                 : 2h 29mn Bit rate mode                            : Constant Bit rate                                 : 128 Kbps Channel(s)                               : 2 channels Sampling rate                            : 48.0 KHz Compression mode                         : Lossy Stream size                              : 137 MiB (9%) Alignment                                : Aligned on interleaves Interleave, duration                     : 24 ms (0.58 video frame)

Film Detayları


 Saka Kuşu

 Saka Kuşu

 Saka Kuşu


Film Fragmanı


Film Detayları

Brrip İndir

Uptobox ile indir

1Fichier ile indir

1Fichier'den İndiremiyor musun? Tıklayın!


Mega linki şuan da gizli. Kullanıma açmak için konuya yorum yapın ve ardından sayfayı yenileyin.

Mega


MediaFire ile indir



Konu ile Alakalı Benzer Konular
Konular Yazar Yorumlar Okunma Son Yorum
Filmin Yayınlanma Tarihi: 2016
Suicide Squad: Gerçek Kötüler Türkçe Dublaj Brrip-Xvid İndir BroserBros 5 3,532 1 saat önce
Son Yorum: algül
Filmin Yayınlanma Tarihi: 2018
Venom: Zehirli Öfke (Venom) - 2018 - TR - BRRip XviD | tt1270797 BroserBros 9 1,273 1 saat önce
Son Yorum: Furkan61
Filmin Yayınlanma Tarihi: 2016
Batman v Superman: Adaletin Şafağı (Batman v Superman: Dawn of Justice) - 2016 - TR - BRRip XviD | tt2975590 BroserBros 1 1,608 2 saat önce
Son Yorum: BroserBros
Filmin Yayınlanma Tarihi: 2020
Yarını Yokmuş Gibi (Palm Springs) - 2020 - TR - BRRip XviD | tt9484998 TheSteeL 0 27 , Saat: 01:17
Son Yorum: TheSteeL
Filmin Yayınlanma Tarihi: 2020
Polis (Police) - 2020 - TR - BRRip XviD | tt9850344 TheSteeL 0 23 , Saat: 01:04
Son Yorum: TheSteeL

Hızlı Menü: