Hoşgeldin, Ziyaretçi: Giriş Yap Üye Ol


stats
Adblock'u kapattıysanız tıklayın.
Hoşgeldiniz!
Filmbol'u tercih ettiğiniz için teşekkürler, ancak ablock kullanarak devam edemezsiniz.
Merak etmeyin. Heryerden ardı ardına çıkan reklamlar görmeyeceksiniz :)

Sadece site içi 1 reklam göreceksin ve bu site gezintini etkilemeyecek.
Konuyu Oyla:
  • Derecelendirme: 0/5 - 0 oy
  • 1
  • 2
  • 3
  • 4
  • 5
Sadık Dostum (A Dog's Way Home) Türkçe Dublaj Brrip Xvid İndir
#1
Filmin Yayınlanma Tarihi: 2019 

indirme türü


Bulut + Premium

vizyon tarihi


11 Haziran 2019

Boyutlar


1,15

diller


[TR]

altyazilar


Yok [Eklenebilir]

Video Format: Avi


Audio Video Interleave (.AVI)

Video Detay


MPEG-4, 1596 Kbps, 1,07GB

imdb puanı


6,7 / 10,0 / 10,000

süre


96 dakika

Ses Kodek: MP3


MPEG-1 Audio Layer III (MP3)

Ses Detay


128 Kbps, 2Kanal, 88Mb

Editör Puanı


6,0

Genislik Yukseklik


720-304

sürüm


h263 | WEBDL-Brrip Xvid



Film Detayları

adık bir köpek, sahibini bulmak için hayvanlar barınağından Colaroda'ya kadar 700km yol kat eder.

Sadık Dostum (A Dog's Way Home) Filmi Imdb'den 10,000 kişi tarafından oylandı ve 6,7 puan aldı. Bu film için editör puanı 6,0 olarak belirlendi. İyi Seyirler!


Teknik Detaylar



Kod:
General
Complete name                            : Sadık.Dostum.2019.WEB-DL.XviD.TR.Filmbol.avi
Format                                   : AVI
Format/Info                              : Audio Video Interleave
File size                                : 1.16 GiB
Duration                                 : 1h 35mn
Overall bit rate                         : 1 737 Kbps

Video
ID                                       : 0
Format                                   : MPEG-4 Visual
Format profile                           : Simple@L5
Format settings, BVOP                    : No
Format settings, QPel                    : No
Format settings, GMC                     : No warppoints
Format settings, Matrix                  : Default (H.263)
Codec ID                                 : XVID
Codec ID/Hint                            : XviD
Duration                                 : 1h 35mn
Bit rate                                 : 1 596 Kbps
Width                                    : 720 pixels
Height                                   : 304 pixels
Display aspect ratio                     : 2.40:1
Frame rate                               : 23.976 fps
Color space                              : YUV
Chroma subsampling                       : 4:2:0
Bit depth                                : 8 bits
Scan type                                : Progressive
Compression mode                         : Lossy
Bits/(Pixel*Frame)                       : 0.304
Stream size                              : 1.07 GiB (92%)
Writing library                          : Lavc58.1.100

Audio
ID                                       : 1
Format                                   : MPEG Audio
Format version                           : Version 1
Format profile                           : Layer 3
Mode                                     : Joint stereo
Mode extension                           : MS Stereo
Codec ID                                 : 55
Codec ID/Hint                            : MP3
Duration                                 : 1h 35mn
Bit rate mode                            : Constant
Bit rate                                 : 128 Kbps
Channel(s)                               : 2 channels
Sampling rate                            : 48.0 KHz
Compression mode                         : Lossy
Stream size                              : 87.8 MiB (7%)
Alignment                                : Aligned on interleaves
Interleave, duration                     : 24 ms (0.58 video frame)


Film Detayları


Sadık Dostum turkce dublaj indir


Film Fragmanı


Film Detayları

Brrip İndir


Turbobit İle İndir

Uptobox ile indir

Tusfiles ile indir

Filerio ile indir

LetsUpload ile indir

MegaUp ile indir

Filmbol'da aşağıdaki linkler sadece üyelere sunulur. Ayrıca bu linklerde link kısaltma servisleri kullanılmaz, linke tek tık ile reklamsız erişirsiniz. Konu'ya yorum yapın ve sayfayı yenileyin. Reklamsız linkler (en az 3 en fazla 5 link) açılmış olacaktır. Not: Filmbol'a üye olmak tamamen ücretsizdir, en az 3 link kuralı 01.07.2019 tarihinden sonraki paylaşımlar için geçerlidir. Ancak çoğu film için en az bir premium link her zaman bulunur.

Mega

Dosyaco

Dosyaupload

Mediafire

Google Drive
 
Cevapla
  


Konu ile Alakalı Benzer Konular
Konular Yazar Yorumlar Okunma Son Yorum
Filmin Yayınlanma Tarihi: 2018 Fındık Kıran ve Dört Diyar (The Nutcracker...) Türkçe Dublaj Brrip Xvid İndir BroserBros 0 48 04-08-2019, Saat: 18:07
Son Yorum: BroserBros
Filmin Yayınlanma Tarihi: 2018 Grinç (The Grinch) Türkçe Dublaj Brrip Xvid İndir BroserBros 0 31 28-07-2019, Saat: 20:50
Son Yorum: BroserBros
Filmin Yayınlanma Tarihi: 2019 Dumbo (7A) Türkçe Dublaj Brrip Xvid İndir BroserBros 0 91 23-07-2019, Saat: 19:49
Son Yorum: BroserBros
Filmin Yayınlanma Tarihi: 2018 Zamanda Kıvrılma (A Wrinkle in Time) Türkçe Dublaj Brrip-Xvid İndir BroserBros 1 554 17-02-2019, Saat: 19:07
Son Yorum: mehmet_akif
Filmin Yayınlanma Tarihi: 2015 Babalar Savaşıyor (Daddy's Home) Türkçe Dublaj Brrip-Xvid İndir BroserBros 0 1,151 26-02-2017, Saat: 16:15
Son Yorum: BroserBros

Hızlı Menü:


Şu anda bu konuyu okuyanlar: 1 Ziyaretçi