Hoşgeldin, Ziyaretçi: Giriş Yap Üye Ol


Konuyu Oyla:
  • Derecelendirme: 0/5 - 0 oy
  • 1
  • 2
  • 3
  • 4
  • 5
Title: Sadık Dostum (A Dog's Way Home) Türkçe Dublaj Brrip Xvid İndir
Gösterim Stili
#1
Filmin Yayınlanma Tarihi: 2019 

indirme türü


Bulut + Premium

vizyon tarihi


11 Haziran 2019

Boyutlar


1,15

diller


[TR]

altyazilar


Yok [Eklenebilir]

Video Format: Avi


Audio Video Interleave (.AVI)

Video Detay


MPEG-4, 1596 Kbps, 1,07GB

imdb puanı


6,7 / 10,0 / 10,000

süre


96 dakika

Ses Kodek: MP3


MPEG-1 Audio Layer III (MP3)

Ses Detay


128 Kbps, 2Kanal, 88Mb

Editör Puanı


6,0

Genislik Yukseklik


720-304

sürüm


h263 | WEBDL-Brrip Xvid


Film Detayları

adık bir köpek, sahibini bulmak için hayvanlar barınağından Colaroda'ya kadar 700km yol kat eder.

Sadık Dostum (A Dog's Way Home) Filmi Imdb'den 10,000 kişi tarafından oylandı ve 6,7 puan aldı. Bu film için editör puanı 6,0 olarak belirlendi. İyi Seyirler!


Teknik Detaylar


Kod:
General
Complete name                            : Sadık.Dostum.2019.WEB-DL.XviD.TR.Filmbol.avi
Format                                   : AVI
Format/Info                              : Audio Video Interleave
File size                                : 1.16 GiB
Duration                                 : 1h 35mn
Overall bit rate                         : 1 737 Kbps

Video
ID                                       : 0
Format                                   : MPEG-4 Visual
Format profile                           : Simple@L5
Format settings, BVOP                    : No
Format settings, QPel                    : No
Format settings, GMC                     : No warppoints
Format settings, Matrix                  : Default (H.263)
Codec ID                                 : XVID
Codec ID/Hint                            : XviD
Duration                                 : 1h 35mn
Bit rate                                 : 1 596 Kbps
Width                                    : 720 pixels
Height                                   : 304 pixels
Display aspect ratio                     : 2.40:1
Frame rate                               : 23.976 fps
Color space                              : YUV
Chroma subsampling                       : 4:2:0
Bit depth                                : 8 bits
Scan type                                : Progressive
Compression mode                         : Lossy
Bits/(Pixel*Frame)                       : 0.304
Stream size                              : 1.07 GiB (92%)
Writing library                          : Lavc58.1.100

Audio
ID                                       : 1
Format                                   : MPEG Audio
Format version                           : Version 1
Format profile                           : Layer 3
Mode                                     : Joint stereo
Mode extension                           : MS Stereo
Codec ID                                 : 55
Codec ID/Hint                            : MP3
Duration                                 : 1h 35mn
Bit rate mode                            : Constant
Bit rate                                 : 128 Kbps
Channel(s)                               : 2 channels
Sampling rate                            : 48.0 KHz
Compression mode                         : Lossy
Stream size                              : 87.8 MiB (7%)
Alignment                                : Aligned on interleaves
Interleave, duration                     : 24 ms (0.58 video frame)


Film Detayları


Sadık Dostum turkce dublaj indir


Film Fragmanı


Film Detayları

Brrip İndir


Uptobox ile indir

LetsUpload ile indir

Mega Upload ile indir


Mega linki şuan da gizli. Kullanıma açmak için konuya yorum yapın ve ardından sayfayı yenileyin. Ayrıca bu linki açtığınızda reklamsız olarak erişebileceğinizi unutmayın.

Mega


j6jC
 
Cevapla
#2
süper
 
Cevapla
  


Konu ile Alakalı Benzer Konular
Konular Yazar Yorumlar Okunma Son Yorum
Filmin Yayınlanma Tarihi: 2016 The BFG (The BFG) Türkçe Dublaj Brrip-Xvid İndir BroserBros 2 1,377 16-01-2020, Saat: 20:12
Son Yorum: ercan
Filmin Yayınlanma Tarihi: 2018 Christopher Robin (2018) Türkçe Dublaj BRRip XviD İndir BroserBros 2 62 14-01-2020, Saat: 13:38
Son Yorum: muratuzun1
Filmin Yayınlanma Tarihi: 2015 Babalar Savaşıyor (Daddy's Home) Türkçe Dublaj Brrip-Xvid İndir BroserBros 2 1,375 10-01-2020, Saat: 23:03
Son Yorum: ercan
Filmin Yayınlanma Tarihi: 2019 Aladdin (2019) Türkçe Dublaj Brrip Xvid İndir BroserBros 7 780 10-01-2020, Saat: 22:16
Son Yorum: ercan
Filmin Yayınlanma Tarihi: 2019 Dora ve Kayıp Altın Şehri (Dora and the Lost City..) Türkçe Dublaj Brrip Xvid İndir BroserBros 4 407 07-01-2020, Saat: 20:34
Son Yorum: ercan

Hızlı Menü:


Browsing: 1 Ziyaretçi