Filmbol Forum Film İndir 1080P v Rüzgar Yükseliyor (Kaze tachinu) Türkçe Dublaj BLURAY 1080P İndir
Filmbol'da moderatör olmak ister misiniz? Bizimle iletişime geçmek için tıklayın!
Rüzgar Yükseliyor (Kaze tachinu) Türkçe Dublaj BLURAY 1080P İndir
BroserBros
Rüzgar Yükseliyor (Kaze tachinu) Türkçe Dublaj BLURAY 1080P İndir
5
610
  • Derecelendirme: 0/5 - 0 oy
  • 1
  • 2
  • 3
  • 4
  • 5
Konuyu Okuyanlar:1 Ziyaretçi
Şuan Online!
Filmin Yayınlanma Tarihi: 2012 
Şuan Online!
BroserBros Kurucu Admin
*******
Admin

Vizyon Tarihi


14 Mart 2014

imdb puanı


7,8 / 65,000

süre


126 dakika

Editör Puanı


7,5

Video Format: Mkv


Matroska (.MKV)

Ses Kodek: AC3


Audio Coding 3 (AC3)

sürüm


x264 | 1080P | BLURAY

Boyutlar


0,76



Rüzgar Yükseliyor



Film Detayları

The Wind Rises, uçaklara bir hayli ilgili olan ve bir gün uzman bir uçak tasarımcısı olmanın hayallerini kuran başkahraman Jiro'nun hikayesini ele alıyor. En büyük idolü ise bu alanda tanınmış bir uzman olan, Alpler'in ötesindeki Caproni'dir. Caproni işlerinin estetik güzelliği ve muazzam teknik becerisiyle bu alanın önde gelen isimlerinden biri olmuştur. Çocukluğundan beri görme sorunları yaşayan Jiro, 1930'ların sonundan önemli bir kurumun uçak departmanına girmeyi başarır. Zaman ilerledikçe başarısı patronlarının da ilgisini çeker ve onu istediği gibi tasarım yapması konusunda özgür bırakmaya karar verir. İkinci Dünya Savaşı başlamak üzeredir ve Jiro'nun hayatında birçok şeyi değiştirecektir. Filmin yönetmen koltuğunda usta sinemacı Hayao Miyazaki bulunuyor.
Rüzgar Yükseliyor (Kaze tachinu) Filmi Imdb'den 65,000 kişi tarafından oylandı ve 7,8 puan aldı. Bu film için editör puanı 7,5 olarak belirlendi. İyi Seyirler!
"Rüzgar yükseliyor, yaşamaya çalışmalı..."


Teknik Detaylar


Kod :
General
Unique ID                                : 332290849005643008778788307575557663287 (0xF9FCE3BF178D693B588CF7B80CC52A37)
Complete name                            : /root/Desktop/New/Rzgar.Ykseliyor.2013.1080P.BLURAY.TR.Filmbol.mkv
Format                                   : Matroska
Format version                           : Version 4 / Version 2
File size                                : 2.01 GiB
Duration                                 : 2h 6mn
Overall bit rate                         : 2 271 Kbps
Movie name                               : The Wind Rises (2013) - Filmbol.org
Encoded date                             : UTC 2019-12-26 11:41:50
Writing application                      : mkvmerge v25.0.0 ('Prog Noir') 64-bit
Writing library                          : libebml v1.3.6 + libmatroska v1.4.9
Attachments                              : 方正准圆_GBK_0.TTF / ARIALN.TTF / DFGKyks4-Arrietty.ttf / DFPGothUW5-Arrietty.ttf / FOT-MatisseMinoriProB-En.otf / LTe53507.ttf / Memo-Condensed_Italic.ttf / Memo-Condensed_Normal.ttf / msgothic.ttf / PPETRIAL.otf

Video
ID                                       : 1
Format                                   : HEVC
Format/Info                              : High Efficiency Video Coding
Format profile                           : Main 10@L4@Main
Codec ID                                 : V_MPEGH/ISO/HEVC
Duration                                 : 2h 6mn
Bit rate                                 : 2 109 Kbps
Width                                    : 1 920 pixels
Height                                   : 1 040 pixels
Display aspect ratio                     : 1.85:1
Frame rate mode                          : Constant
Frame rate                               : 23.976 (24000/1001) fps
Color space                              : YUV
Chroma subsampling                       : 4:2:0
Bit depth                                : 10 bits
Bits/(Pixel*Frame)                       : 0.044
Stream size                              : 1.86 GiB (93%)
Title                                    : 1080P - Filmbol.org
Writing library                          : x265 1.9+3-548a45bbf223:[Windows][GCC 5.3.0][64 bit] 10bit
Encoding settings                        : wpp / ctu=64 / min-cu-size=8 / max-tu-size=32 / tu-intra-depth=1 / tu-inter-depth=1 / me=1 / subme=2 / merange=57 / no-rect / no-amp / max-merge=2 / temporal-mvp / no-early-skip / rdpenalty=0 / no-tskip / no-tskip-fast / strong-intra-smoothing / no-lossless / no-cu-lossless / no-constrained-intra / no-fast-intra / open-gop / no-temporal-layers / interlace=0 / keyint=250 / min-keyint=23 / scenecut=40 / rc-lookahead=20 / lookahead-slices=6 / bframes=4 / bframe-bias=0 / b-adapt=2 / ref=3 / limit-refs=3 / no-limit-modes / weightp / no-weightb / aq-mode=1 / qg-size=32 / aq-strength=1.00 / cbqpoffs=0 / crqpoffs=0 / rd=3 / psy-rd=2.00 / rdoq-level=0 / psy-rdoq=0.00 / no-rd-refine / signhide / deblock / sao / no-sao-non-deblock / b-pyramid / cutree / no-intra-refresh / rc=2 / pass / bitrate=2108 / qcomp=0.60 / qpmin=0 / qpmax=51 / qpstep=4 / cplxblur=20.0 / qblur=0.5 / ipratio=1.40 / pbratio=1.30
Default                                  : Yes
Forced                                   : No

Audio
ID                                       : 2
Format                                   : MPEG Audio
Format version                           : Version 1
Format profile                           : Layer 3
Mode                                     : Joint stereo
Mode extension                           : MS Stereo
Codec ID                                 : A_MPEG/L3
Codec ID/Hint                            : MP3
Duration                                 : 2h 6mn
Bit rate mode                            : Constant
Bit rate                                 : 128 Kbps
Channel(s)                               : 2 channels
Sampling rate                            : 48.0 KHz
Frame rate                               : 41.667 fps (1152 spf)
Compression mode                         : Lossy
Stream size                              : 116 MiB (6%)
Title                                    : Türkçe - Filmbol.org
Default                                  : Yes
Forced                                   : No

Film Detayları


Rüzgar Yükseliyor

Rüzgar Yükseliyor

Rüzgar Yükseliyor


Film Fragmanı


Film Detayları

Mini 1080P İndir



Uptobox ile indir

1Fichier ile indir

1Fichier'den İndiremiyor musun? Tıklayın!


Mega ile indir

MediaFire ile indir

Şuan Offine!
Şuan Offine!
dejavu Uzman Üye
**
Uzman Üye

  • Konular2
  • Mesajlar18
  • Rep puanı 0
teşekkürler
Şuan Offine!
Şuan Offine!
ComputerTeacher Yeni Üye
*
Üye

  • Konular0
  • Mesajlar1
  • Rep puanı 0
teşekkürler
Şuan Offine!
Şuan Offine!
sadred Uzman Üye
**
Uzman Üye

  • Konular0
  • Mesajlar6
  • Rep puanı 0
ewrewrwerew
Şuan Offine!
Şuan Offine!
turki32 Yeni Üye
*
Üye

  • Konular0
  • Mesajlar3
  • Rep puanı 0
teşekkürler
Şuan Offine!
Şuan Offine!
dijital26 Yeni Üye
*
Üye

  • Konular0
  • Mesajlar3
  • Rep puanı 0
Teşekkür ederim..


Konu ile Alakalı Benzer Konular
Konular Yazar Yorumlar Okunma Son Yorum
Filmin Yayınlanma Tarihi: 2019
Tolkien (2019) Türkçe Dublaj BLURAY m1080P İndir BroserBros 4 427 , Saat: 15:29
Son Yorum: Rocklion17
Filmin Yayınlanma Tarihi: 2020
Deathstroke Şövalyeler ve Ejderhalar (Deathstroke Knights & Dragons: The Movie) - 2020 - TR+ORG - 1080P BroserBros 0 41 23-11-2020, Saat: 18:31
Son Yorum: BroserBros
Filmin Yayınlanma Tarihi: 2019
15 Dakika Savaş (L'intervention) - 2019 - TR+ORG - 1080P BroserBros 0 44 23-11-2020, Saat: 17:42
Son Yorum: BroserBros
Filmin Yayınlanma Tarihi: 2020
Sürprizli Gece (The Sleepover) - 2020 - TR+ORG - 1080P BroserBros 0 44 23-11-2020, Saat: 16:19
Son Yorum: BroserBros
Filmin Yayınlanma Tarihi: 2020
Feride (Feride) - 2020 - TR+ORG - 1080P BroserBros 0 75 22-11-2020, Saat: 20:24
Son Yorum: BroserBros

Hızlı Menü: