Filmbol Forum Film İndir BRRip XviD v Rising High (Betonrausch) - 2020 - TR - BRRip XviD
Moderatör Alımları Başladı! Başvuru yapmak için tıklayın.
Filmbol Premium'da %50'e varan indirim fırsatı!
Rising High (Betonrausch) - 2020 - TR - BRRip XviD
BroserBros
Rising High (Betonrausch) - 2020 - TR - BRRip XviD
0
71
  • Derecelendirme: 0/5 - 0 oy
  • 1
  • 2
  • 3
  • 4
  • 5
Konuyu Okuyanlar:1 Ziyaretçi
Şuan Online!
Filmin Yayınlanma Tarihi: 2020 
Şuan Online!
BroserBros Kurucu Admin
*******
Admin

Vizyon Tarihi


17 Nisan 2020

imdb puanı


5,9 / 500

süre


94 dakika

Editör Puanı


5,5 / 10

Video Format: Avi


Audio Video Interleave (.AVI)

Ses Kodek: MP3


MPEG-1 Audio Layer III (MP3)

sürüm


h263 | HDRip XviD

Boyutlar


1,15 GB



 Rising High



Zenginlik elbette her insan için önemlidir ancak bazıları bunun için sınırları zorlar ve üçkağıtçılıktan sahtekarlığa kadar herşeyi yapmaya hazırdır. Bir genç adam da tam anlamıyla bu profile uyar ve sahtekar bir arkadaşı ile emlak piyasasını karıştırırlar. Başarılı olurlar fakat bu bir zenginlik başarısıdır, hayatları aynı oranda başarılı olamayacaktır...

Rising High (2020) (Betonrausch) Filmi Imdb'den 500 kişi tarafından oylandı ve 5,9 puan aldı. Bu film için editör puanı 5,5 olarak belirlendi. İyi Seyirler!

Teknik Detaylar

Kod :
General
Complete name                            : /root/Desktop/3/Rising.High.2020.HDRip.XViD.TR.Filmbol.avi
Format                                  : AVI
Format/Info                              : Audio Video Interleave
File size                                : 1.15 GiB
Duration                                : 1h 34mn
Overall bit rate                        : 1 736 Kbps

Video
ID                                      : 0
Format                                  : MPEG-4 Visual
Format profile                          : Simple@L5
Format settings, BVOP                    : No
Format settings, QPel                    : No
Format settings, GMC                    : No warppoints
Format settings, Matrix                  : Default (H.263)
Codec ID                                : XVID
Codec ID/Hint                            : XviD
Duration                                : 1h 34mn
Bit rate                                : 1 595 Kbps
Width                                    : 720 pixels
Height                                  : 360 pixels
Display aspect ratio                    : 2.000
Frame rate                              : 25.000 fps
Color space                              : YUV
Chroma subsampling                      : 4:2:0
Bit depth                                : 8 bits
Scan type                                : Progressive
Compression mode                        : Lossy
Bits/(Pixel*Frame)                      : 0.246
Stream size                              : 1.06 GiB (92%)
Writing library                          : Lavc58.35.100

Audio
ID                                      : 1
Format                                  : MPEG Audio
Format version                          : Version 1
Format profile                          : Layer 3
Mode                                    : Joint stereo
Mode extension                          : MS Stereo
Codec ID                                : 55
Codec ID/Hint                            : MP3
Duration                                : 1h 34mn
Bit rate mode                            : Constant
Bit rate                                : 128 Kbps
Channel(s)                              : 2 channels
Sampling rate                            : 48.0 KHz
Compression mode                        : Lossy
Stream size                              : 86.7 MiB (7%)
Alignment                                : Aligned on interleaves
Interleave, duration                    : 24 ms (0.60 video frame)

Film Detayları


 Rising High

 Rising High

 Rising High


Film Fragmanı


Film Detayları


Uptobox ile indir

1Fichier ile indir

1Fichier'den İndiremiyor musun? Tıklayın!


Mega ile indir

Bunun için üzgünüz ancak, bu linke sadece premium üyeler erişebilir.

Filmbol Cloud



Konu ile Alakalı Benzer Konular
Konular Yazar Yorumlar Okunma Son Yorum
Filmin Yayınlanma Tarihi: 2014
Lego Filmi (The Lego Movie) - 2014 - TR - BRRip XviD BroserBros 0 16 9 saat önce
Son Yorum: BroserBros
Filmin Yayınlanma Tarihi: 2014
Nuh: Büyük Tufan (Noah) - 2014 - TR - BRRip XviD BroserBros 0 18 10 saat önce
Son Yorum: BroserBros
Filmin Yayınlanma Tarihi: 2014
Yarının Sınırında (Edge of Tomorrow) - 2014 - TR - BRRip XviD BroserBros 0 29 , Saat: 20:40
Son Yorum: BroserBros
Filmin Yayınlanma Tarihi: 2014
Hız Tutkusu (Need for Speed) - 2014 - TR - BRRip XviD BroserBros 3 88 , Saat: 12:10
Son Yorum: BroserBros
Filmin Yayınlanma Tarihi: 2014
300: Bir İmparatorluğun Yükselişi (300: Rise of an Empire - 300 Spartalı 2) - 2014 - TR - BRRip XviD BroserBros 0 62 04-06-2020, Saat: 13:39
Son Yorum: BroserBros

Hızlı Menü: