Filmbol Forum Film İndir 720P v Rising High (Betonrausch) - 2020 - TR - 720P
Moderatör Alımları Başladı! Başvuru yapmak için tıklayın.
Filmbol Premium'da %50'e varan indirim fırsatı!
Rising High (Betonrausch) - 2020 - TR - 720P
BroserBros
Rising High (Betonrausch) - 2020 - TR - 720P
0
130
  • Derecelendirme: 0/5 - 0 oy
  • 1
  • 2
  • 3
  • 4
  • 5
Konuyu Okuyanlar:1 Ziyaretçi
Şuan Offine!
Filmin Yayınlanma Tarihi: 2020 
Şuan Offine!
BroserBros Kurucu Admin
*******
Admin

Vizyon Tarihi


17 Nisan 2020

imdb puanı


5,9 / 500

süre


94 dakika

Editör Puanı


5,5 / 10

Video Format: Mkv


Matroska (.MKV)

Ses Kodek: AC3


Audio Coding 3 (AC3)

sürüm


x264 | 720P | NF - WEBRip

Boyutlar


1,09 GB



 Rising High



Zenginlik elbette her insan için önemlidir ancak bazıları bunun için sınırları zorlar ve üçkağıtçılıktan sahtekarlığa kadar herşeyi yapmaya hazırdır. Bir genç adam da tam anlamıyla bu profile uyar ve sahtekar bir arkadaşı ile emlak piyasasını karıştırırlar. Başarılı olurlar fakat bu bir zenginlik başarısıdır, hayatları aynı oranda başarılı olamayacaktır...

Rising High (2020) (Betonrausch) Filmi Imdb'den 500 kişi tarafından oylandı ve 5,9 puan aldı. Bu film için editör puanı 5,5 olarak belirlendi. İyi Seyirler!

Teknik Detaylar

Kod :
General
Unique ID                                : 137334029058459387610502003881855036052 (0x67519267B0F7BD21744EDA14D0FE2A94)
Complete name                            : /root/Desktop/3/Rising.High.2020.720p.NF.WEB-DL.x264.TR.Filmbol.mkv
Format                                  : Matroska
Format version                          : Version 4 / Version 2
File size                                : 1.09 GiB
Duration                                : 1h 34mn
Overall bit rate                        : 1 642 Kbps
Movie name                              : Rising High (2020) - Filmbol.org
Encoded date                            : UTC 2020-04-18 12:49:05
Writing application                      : mkvmerge v8.8.0 ('Wind at my back') 64bit
Writing library                          : libebml v1.3.3 + libmatroska v1.4.4

Video
ID                                      : 1
Format                                  : AVC
Format/Info                              : Advanced Video Codec
Format profile                          : Main@L3.1
Format settings, CABAC                  : Yes
Format settings, ReFrames                : 2 frames
Codec ID                                : V_MPEG4/ISO/AVC
Duration                                : 1h 34mn
Bit rate                                : 1 256 Kbps
Width                                    : 1 280 pixels
Height                                  : 640 pixels
Display aspect ratio                    : 2.000
Frame rate mode                          : Constant
Frame rate                              : 25.000 fps
Color space                              : YUV
Chroma subsampling                      : 4:2:0
Bit depth                                : 8 bits
Scan type                                : Progressive
Bits/(Pixel*Frame)                      : 0.061
Stream size                              : 851 MiB (76%)
Title                                    : 720P - Filmbol.org
Default                                  : Yes
Forced                                  : No

Audio
ID                                      : 2
Format                                  : AC-3
Format/Info                              : Audio Coding 3
Mode extension                          : CM (complete main)
Format settings, Endianness              : Big
Codec ID                                : A_AC3
Duration                                : 1h 34mn
Bit rate mode                            : Constant
Bit rate                                : 384 Kbps
Channel(s)                              : 6 channels
Channel positions                        : Front: L C R, Side: L R, LFE
Sampling rate                            : 48.0 KHz
Frame rate                              : 31.250 fps (1536 spf)
Compression mode                        : Lossy
Stream size                              : 260 MiB (23%)
Title                                    : Türkçe
Language                                : Turkish
Default                                  : Yes
Forced                                  : No

Text
ID                                      : 3
Format                                  : UTF-8
Codec ID                                : S_TEXT/UTF8
Codec ID/Info                            : UTF-8 Plain Text
Duration                                : 1h 31mn
Bit rate                                : 1 bps
Count of elements                        : 51
Stream size                              : 1.22 KiB (0%)
Title                                    : KISIM
Language                                : Turkish
Default                                  : Yes
Forced                                  : Yes

Film Detayları


 Rising High

 Rising High

 Rising High


Film Fragmanı


Film Detayları

Uptobox ile indir

1Fichier ile indir

1Fichier'den İndiremiyor musun? Tıklayın!


Mega ile indir

Bunun için üzgünüz ancak, bu linke sadece premium üyeler erişebilir.

Filmbol Cloud



Konu ile Alakalı Benzer Konular
Konular Yazar Yorumlar Okunma Son Yorum
Filmin Yayınlanma Tarihi: 2020
The Hunt (Av) - 2020 - TR+ORG - 720P BroserBros 0 186 18-09-2020, Saat: 19:28
Son Yorum: BroserBros
Filmin Yayınlanma Tarihi: 2018
Gözbebeğim (Pupille) - 2018 - TR+ORG - 720P BroserBros 0 185 18-09-2020, Saat: 13:02
Son Yorum: BroserBros
  Umut Vadisi (Hope Gap) - 2019 - TR+ORG - 720P BroserBros 0 179 18-09-2020, Saat: 12:51
Son Yorum: BroserBros
Filmin Yayınlanma Tarihi: 2020
Berlin, Berlin (Berlin, Berlin) - 2020 - TR+ORG - 720P BroserBros 0 117 15-09-2020, Saat: 18:15
Son Yorum: BroserBros
Filmin Yayınlanma Tarihi: 2020
Malibu Rescue: Yeni Dalga (Malibu Rescue: The Next Wave) - 2020 - TR+ORG - 720P BroserBros 0 139 13-09-2020, Saat: 20:54
Son Yorum: BroserBros

Hızlı Menü: