Filmbol Forum Film İndir FHD - FULL HD v Rich in Love (Ricos de Amor) - 2020 - TR+ENG - FHD
Moderatör Alımları Başladı! Başvuru yapmak için tıklayın.
Filmbol Premium'da %50'e varan indirim fırsatı!
Rich in Love (Ricos de Amor) - 2020 - TR+ENG - FHD
BroserBros
Rich in Love (Ricos de Amor) - 2020 - TR+ENG - FHD
0
122
  • Derecelendirme: 0/5 - 0 oy
  • 1
  • 2
  • 3
  • 4
  • 5
Konuyu Okuyanlar:1 Ziyaretçi
Şuan Online!
Filmin Yayınlanma Tarihi: 2020 
Şuan Online!
BroserBros Kurucu Admin
*******
Admin

Vizyon Tarihi


30 Nisan 2020

imdb puanı


6,1 / 100

süre


104 dakika

Editör Puanı


5,3 / 10

Video Format: Mkv


Matroska (.MKV)

Ses Kodek: AC3


Audio Coding 3 (AC3)

sürüm


x264 | 1080P | WEB-DL

Boyutlar


1,91 GB



 Rich in Love



Teto, babası zengin olan bir gençtir. Yaptığı iş belirli belirsizdir ve sadece babasının zenginliğinden dolayı onun şirketinde çalışmaktatır. Teto bir kız ile tanışır ve aşık olur. Kıza kendilerinin fakir olduğunu söyler ancak bu yalan ortaya çıktığında olaylar çok farklı bir şekilde değişecektir...

Rich in Love (2020) (Ricos de Amor) Filmi Imdb'den 100 kişi tarafından oylandı ve 6,1 puan aldı. Bu film için editör puanı 5,3 olarak belirlendi. İyi Seyirler!

Teknik Detaylar

Kod :
General
Unique ID                                : 7427523751287933897391609072458698363 (0x5967D31C28683E031CBF5C5203C8E7B)
Complete name                            : /root/Desktop/2/Rich.in.Love.2020.1080p.WEB-DL.x264.TR.POR.Filmbol.mkv
Format                                  : Matroska
Format version                          : Version 4 / Version 2
File size                                : 1.91 GiB
Duration                                : 1h 45mn
Overall bit rate                        : 2 589 Kbps
Movie name                              : Rich in Love (2020) - Filmbol.org
Encoded date                            : UTC 2020-05-01 14:56:50
Writing application                      : mkvmerge v8.8.0 ('Wind at my back') 64bit
Writing library                          : libebml v1.3.3 + libmatroska v1.4.4

Video
ID                                      : 1
Format                                  : AVC
Format/Info                              : Advanced Video Codec
Format profile                          : Main@L4
Format settings, CABAC                  : Yes
Format settings, ReFrames                : 2 frames
Codec ID                                : V_MPEG4/ISO/AVC
Duration                                : 1h 45mn
Bit rate                                : 2 010 Kbps
Width                                    : 1 920 pixels
Height                                  : 1 080 pixels
Display aspect ratio                    : 16:9
Frame rate mode                          : Constant
Frame rate                              : 24.000 fps
Color space                              : YUV
Chroma subsampling                      : 4:2:0
Bit depth                                : 8 bits
Scan type                                : Progressive
Bits/(Pixel*Frame)                      : 0.040
Stream size                              : 1.48 GiB (78%)
Title                                    : Filmbol.org
Default                                  : Yes
Forced                                  : No

Audio #1
ID                                      : 2
Format                                  : AC-3
Format/Info                              : Audio Coding 3
Mode extension                          : CM (complete main)
Format settings, Endianness              : Big
Codec ID                                : A_AC3
Duration                                : 1h 45mn
Bit rate mode                            : Constant
Bit rate                                : 384 Kbps
Channel(s)                              : 6 channels
Channel positions                        : Front: L C R, Side: L R, LFE
Sampling rate                            : 48.0 KHz
Frame rate                              : 31.250 fps (1536 spf)
Compression mode                        : Lossy
Stream size                              : 290 MiB (15%)
Title                                    : Filmbol.org
Language                                : Turkish
Default                                  : Yes
Forced                                  : Yes

Audio #2
ID                                      : 3
Format                                  : AC-3
Format/Info                              : Audio Coding 3
Mode extension                          : CM (complete main)
Format settings, Endianness              : Big
Codec ID                                : A_AC3
Duration                                : 1h 45mn
Bit rate mode                            : Constant
Bit rate                                : 192 Kbps
Channel(s)                              : 2 channels
Channel positions                        : Front: L R
Sampling rate                            : 48.0 KHz
Frame rate                              : 31.250 fps (1536 spf)
Compression mode                        : Lossy
Stream size                              : 145 MiB (7%)
Title                                    : Filmbol.org
Language                                : Polish
Default                                  : No
Forced                                  : No

Text #1
ID                                      : 4
Format                                  : UTF-8
Codec ID                                : S_TEXT/UTF8
Codec ID/Info                            : UTF-8 Plain Text
Duration                                : 1h 39mn
Bit rate                                : 0 bps
Count of elements                        : 14
Stream size                              : 356 Bytes (0%)
Title                                    : KISIM
Language                                : Turkish
Default                                  : Yes
Forced                                  : Yes

Text #2
ID                                      : 5
Format                                  : UTF-8
Codec ID                                : S_TEXT/UTF8
Codec ID/Info                            : UTF-8 Plain Text
Duration                                : 1h 39mn
Bit rate                                : 67 bps
Count of elements                        : 1595
Stream size                              : 49.5 KiB (0%)
Title                                    : Türkçe Altyazı
Language                                : Turkish
Default                                  : No
Forced                                  : No

Film Detayları


 Rich in Love

 Rich in Love

 Rich in Love


Film Fragmanı


Film Detayları

Uptobox ile indir

1Fichier ile indir

1Fichier'den İndiremiyor musun? Tıklayın!


Mega ile indir

Bunun için üzgünüz ancak, bu linke sadece premium üyeler erişebilir.

Filmbol Cloud



Konu ile Alakalı Benzer Konular
Konular Yazar Yorumlar Okunma Son Yorum
Filmin Yayınlanma Tarihi: 2020
The Hunt (Av) - 2020 - TR+ORG - FHD - x264 BroserBros 0 318 18-09-2020, Saat: 19:29
Son Yorum: BroserBros
Filmin Yayınlanma Tarihi: 2020
Berlin, Berlin (Berlin, Berlin) - 2020 - TR+ORG - FHD - x264 BroserBros 0 95 15-09-2020, Saat: 18:18
Son Yorum: BroserBros
Filmin Yayınlanma Tarihi: 2020
Malibu Rescue: Yeni Dalga (Malibu Rescue: The Next Wave) - 2020 - TR+ORG - FHD - x264 BroserBros 0 137 13-09-2020, Saat: 20:55
Son Yorum: BroserBros
Filmin Yayınlanma Tarihi: 2019
Sıradan Aşk (Ordinary Love) - 2019 - TR+ORG - FHD - x264 BroserBros 0 335 01-09-2020, Saat: 21:30
Son Yorum: BroserBros
Filmin Yayınlanma Tarihi: 2020
Work It (Work It) - 2020 - TR+ORG - FHD - x264 BroserBros 0 263 22-08-2020, Saat: 20:23
Son Yorum: BroserBros

Hızlı Menü: