Filmbol Forum Film İndir BRRip XviD v Rich in Love (Ricos de Amor) - 2020 - TR - BRRip XviD
Moderatör Alımları Başladı! Başvuru yapmak için tıklayın.
Filmbol Premium'da %50'e varan indirim fırsatı!
Rich in Love (Ricos de Amor) - 2020 - TR - BRRip XviD
BroserBros
Rich in Love (Ricos de Amor) - 2020 - TR - BRRip XviD
0
128
  • Derecelendirme: 0/5 - 0 oy
  • 1
  • 2
  • 3
  • 4
  • 5
Konuyu Okuyanlar:1 Ziyaretçi
Şuan Offine!
Filmin Yayınlanma Tarihi: 2020 
Şuan Offine!
BroserBros Kurucu Admin
*******
Admin

Vizyon Tarihi


30 Nisan 2020

imdb puanı


6,1 / 100

süre


104 dakika

Editör Puanı


5,3 / 10

Video Format: Avi


Audio Video Interleave (.AVI)

Ses Kodek: MP3


MPEG-1 Audio Layer III (MP3)

sürüm


h263 | HDRip XviD

Boyutlar


1,28 GB



 Rich in Love



Teto, babası zengin olan bir gençtir. Yaptığı iş belirli belirsizdir ve sadece babasının zenginliğinden dolayı onun şirketinde çalışmaktatır. Teto bir kız ile tanışır ve aşık olur. Kıza kendilerinin fakir olduğunu söyler ancak bu yalan ortaya çıktığında olaylar çok farklı bir şekilde değişecektir...

Rich in Love (2020) (Ricos de Amor) Filmi Imdb'den 100 kişi tarafından oylandı ve 6,1 puan aldı. Bu film için editör puanı 5,3 olarak belirlendi. İyi Seyirler!

Teknik Detaylar

Kod :
General
Complete name                            : /root/Desktop/2/Rich.in.Love.2020.HDRip.XViD.TR.Filmbol.avi
Format                                  : AVI
Format/Info                              : Audio Video Interleave
File size                                : 1.28 GiB
Duration                                : 1h 45mn
Overall bit rate                        : 1 734 Kbps

Video
ID                                      : 0
Format                                  : MPEG-4 Visual
Format profile                          : Simple@L5
Format settings, BVOP                    : No
Format settings, QPel                    : No
Format settings, GMC                    : No warppoints
Format settings, Matrix                  : Default (H.263)
Codec ID                                : XVID
Codec ID/Hint                            : XviD
Duration                                : 1h 45mn
Bit rate                                : 1 593 Kbps
Width                                    : 720 pixels
Height                                  : 360 pixels
Display aspect ratio                    : 2.000
Frame rate                              : 24.000 fps
Color space                              : YUV
Chroma subsampling                      : 4:2:0
Bit depth                                : 8 bits
Scan type                                : Progressive
Compression mode                        : Lossy
Bits/(Pixel*Frame)                      : 0.256
Stream size                              : 1.17 GiB (92%)
Writing library                          : Lavc58.35.100

Audio
ID                                      : 1
Format                                  : MPEG Audio
Format version                          : Version 1
Format profile                          : Layer 3
Mode                                    : Joint stereo
Mode extension                          : MS Stereo
Codec ID                                : 55
Codec ID/Hint                            : MP3
Duration                                : 1h 45mn
Bit rate mode                            : Constant
Bit rate                                : 128 Kbps
Channel(s)                              : 2 channels
Sampling rate                            : 48.0 KHz
Compression mode                        : Lossy
Stream size                              : 96.5 MiB (7%)
Alignment                                : Aligned on interleaves
Interleave, duration                    : 24 ms (0.58 video frame)

Film Detayları


 Rich in Love

 Rich in Love

 Rich in Love


Film Fragmanı


Film Detayları


Uptobox ile indir

1Fichier ile indir

1Fichier'den İndiremiyor musun? Tıklayın!


Mega ile indir

Bunun için üzgünüz ancak, bu linke sadece premium üyeler erişebilir.

Filmbol Cloud



Konu ile Alakalı Benzer Konular
Konular Yazar Yorumlar Okunma Son Yorum
Filmin Yayınlanma Tarihi: 2014
Yarının Sınırında (Edge of Tomorrow) - 2014 - TR - BRRip XviD BroserBros 1 138 20-10-2020, Saat: 15:13
Son Yorum: sectechno
Filmin Yayınlanma Tarihi: 2020
Holly Slept Over (Holly Slept Over) - 2020 - TR - BRRip XviD BroserBros 0 392 08-10-2020, Saat: 20:08
Son Yorum: BroserBros
Filmin Yayınlanma Tarihi: 2019
Rahat Kız (An Easy Girl) - 2019 - TR - BRRip XviD BroserBros 0 405 08-10-2020, Saat: 19:34
Son Yorum: BroserBros
Filmin Yayınlanma Tarihi: 2020
Mavi Korku 3 (Deep Blue Sea 3) - 2020 - TR - BRRip XviD BroserBros 0 495 03-10-2020, Saat: 21:11
Son Yorum: BroserBros
Filmin Yayınlanma Tarihi: 2018
Fast Color: Gücünü Serbest Bırak (Fast Color) - 2018 - TR - BRRip XviD BroserBros 0 132 03-10-2020, Saat: 16:46
Son Yorum: BroserBros

Hızlı Menü: