Hoşgeldin, Ziyaretçi: Giriş Yap Üye Ol


Konuyu Oyla:
  • Derecelendirme: 0/5 - 0 oy
  • 1
  • 2
  • 3
  • 4
  • 5
Title: Rampage: Büyük Yıkım (2018) Türkçe Dublaj Brrip-Xvid İndir
Gösterim Stili
#1
Filmin Yayınlanma Tarihi: 2018 

indirme türü


Bulut + Premium

vizyon tarihi


13 Ocak 2018

Boyutlar


1,29GB

diller


[TR]

altyazilar


Yok [Eklenebilir]

Video Format: Avi


Audio Video Interleave (.AVI)

Video Detay


MPEG-4, 1597 Kbps, 1,20 GB

imdb puanı


6,7 / 10,0 / 52,000

süre


107 dakika

Ses Kodek: MP3


MPEG-1 Audio Layer III (MP3)

Ses Detay


128 Kbps, 2 Kanal, 98 Mb

rarsifresi


filmbol.org

Editör Puanı


6,8

Genislik Yukseklik


720x302

sürüm


h263 | Brrip-Xvid


Film Detayları

Primatolog olan Davis Okoye, insanlardan uzak durmakta ve bunun yerine hayvanlarla iletişim kurmaya çalışmaktadır. Bir maymun ile bu konuda baya ilerlemiş, aralarında bir dostluk bağı oluşmuştur. Bu maymun Davis için çok önemlidir ve bir gece yasa dışı gerçekleştirilen bir deneyden etkilenerek maymun vahşileşir. Davis ise onu bu kadar kolay kaybetmeyi göze alamaz.

Büyük Yıkım (Rampage) Filmi İmdb'den 52,000 kişi tarafından oylandı ve 6,2 puan aldı. Bu film için editör puanı 6,8 olarak belirlendi. İyi Seyirler!


Teknik Detaylar
Kod:
General
Complete name                            : /root/Desktop/Rampage.2018.BRRip.XviD.TR.avi
Format                                   : AVI
Format/Info                              : Audio Video Interleave
File size                                : 1.30 GiB
Duration                                 : 1 h 47 min
Overall bit rate                         : 1 735 kb/s
Writing application                      : VirtualDubMod 1.5.10.2 (build 2542/release)
Writing library                          : VirtualDubMod build 2542/release

Video
ID                                       : 0
Format                                   : MPEG-4 Visual
Format profile                           : Simple@L5
Format settings, BVOP                    : No
Format settings, QPel                    : No
Format settings, GMC                     : No warppoints
Format settings, Matrix                  : Default (H.263)
Codec ID                                 : XVID
Codec ID/Hint                            : XviD
Duration                                 : 1 h 47 min
Bit rate                                 : 1 597 kb/s
Width                                    : 720 pixels
Height                                   : 302 pixels
Display aspect ratio                     : 2.40:1
Frame rate                               : 23.976 (24000/1001) FPS
Color space                              : YUV
Chroma subsampling                       : 4:2:0
Bit depth                                : 8 bits
Scan type                                : Progressive
Compression mode                         : Lossy
Bits/(Pixel*Frame)                       : 0.306
Stream size                              : 1.20 GiB (92%)
Writing library                          : Lavc57.107.100

Audio
ID                                       : 1
Format                                   : MPEG Audio
Format version                           : Version 1
Format profile                           : Layer 3
Format settings                          : Joint stereo / MS Stereo
Codec ID                                 : 55
Codec ID/Hint                            : MP3
Duration                                 : 1 h 47 min
Bit rate mode                            : Constant
Bit rate                                 : 128 kb/s
Channel(s)                               : 2 channels
Sampling rate                            : 48.0 kHz
Frame rate                               : 41.667 FPS (1152 SPF)
Compression mode                         : Lossy
Stream size                              : 98.2 MiB (7%)
Alignment                                : Aligned on interleaves
Interleave, duration                     : 42  ms (1.00 video frame)
Interleave, preload duration             : 504  ms




Film Detayları


Rampage

Rampage

Rampage

Rampage

Rampage



Film Fragmanı


Film Detayları

Brrip İndir


Mega linki şuan da gizli. Kullanıma açmak için konuya yorum yapın ve ardından sayfayı yenileyin. Ayrıca bu linki açtığınızda reklamsız olarak erişebileceğinizi unutmayın.

Mega


Uptobox ile indir

CloudRu ile indir

 
Cevapla
#2
teşekkürler ses görüntü iyi
 
Cevapla
#3
Görsel efekt olarak başarılı bir film.izlemeye değer.zaten başrol oyuncularından belli.film için teşekkürler.
 
Cevapla
#4
playstation 2 de izleyeceğim süper bişi
 
Cevapla
  


Konu ile Alakalı Benzer Konular
Konular Yazar Yorumlar Okunma Son Yorum
Filmin Yayınlanma Tarihi: 2014 Malefiz (Maleficent) Türkçe Dublaj BRRip XviD indir BroserBros 3 138 , Saat: 17:36
Son Yorum: Nyx Ulric
Filmin Yayınlanma Tarihi: 2015 Çılgın Max: Öfkeli Yollar (2015) Türkçe Dublaj Brrip-Xvid İndir BroserBros 2 2,022 05-02-2020, Saat: 16:00
Son Yorum: Ap0calypse
Filmin Yayınlanma Tarihi: 2018 Karınca-Adam ve Eşek Arısı (Ant-Man and Wasp) Türkçe Dublaj Brrip Xvid İndir BroserBros 2 419 05-02-2020, Saat: 14:50
Son Yorum: Ap0calypse
Filmin Yayınlanma Tarihi: 2016 Ninja Kaplumbağalar: Gölgelerin İçinden Türkçe Dublaj Brrip-Xvid İndir BroserBros 3 1,377 05-02-2020, Saat: 13:36
Son Yorum: Ap0calypse
Filmin Yayınlanma Tarihi: 2019 IO (2019) Türkçe Dublaj Brrip Xvid İndir BroserBros 3 433 29-01-2020, Saat: 01:00
Son Yorum: alynakrkya

Hızlı Menü:


Browsing: 1 Ziyaretçi