Hoşgeldin, Ziyaretçi: Giriş Yap Üye Ol


Konuyu Oyla:
  • Derecelendirme: 0/5 - 0 oy
  • 1
  • 2
  • 3
  • 4
  • 5
Rampage: Büyük Yıkım (2018) Türkçe Dublaj Brrip-Xvid İndir
#1
Filmin Yayınlanma Tarihi: 2018 

indirme türü


Bulut + Premium

vizyon tarihi


13 Ocak 2018

Boyutlar


1,29GB

diller


[TR]

altyazilar


Yok [Eklenebilir]

Video Format: Avi


Audio Video Interleave (.AVI)

Video Detay


MPEG-4, 1597 Kbps, 1,20 GB

imdb puanı


6,7 / 10,0 / 52,000

süre


107 dakika

Ses Kodek: MP3


MPEG-1 Audio Layer III (MP3)

Ses Detay


128 Kbps, 2 Kanal, 98 Mb

rarsifresi


filmbol.org

Editör Puanı


6,8

Genislik Yukseklik


720x302

sürüm


h263 | Brrip-Xvid




Film Detayları

Primatolog olan Davis Okoye, insanlardan uzak durmakta ve bunun yerine hayvanlarla iletişim kurmaya çalışmaktadır. Bir maymun ile bu konuda baya ilerlemiş, aralarında bir dostluk bağı oluşmuştur. Bu maymun Davis için çok önemlidir ve bir gece yasa dışı gerçekleştirilen bir deneyden etkilenerek maymun vahşileşir. Davis ise onu bu kadar kolay kaybetmeyi göze alamaz.

Büyük Yıkım (Rampage) Filmi İmdb'den 52,000 kişi tarafından oylandı ve 6,2 puan aldı. Bu film için editör puanı 6,8 olarak belirlendi. İyi Seyirler!


Teknik Detaylar

Kod:
General
Complete name                            : /root/Desktop/Rampage.2018.BRRip.XviD.TR.avi
Format                                   : AVI
Format/Info                              : Audio Video Interleave
File size                                : 1.30 GiB
Duration                                 : 1 h 47 min
Overall bit rate                         : 1 735 kb/s
Writing application                      : VirtualDubMod 1.5.10.2 (build 2542/release)
Writing library                          : VirtualDubMod build 2542/release

Video
ID                                       : 0
Format                                   : MPEG-4 Visual
Format profile                           : Simple@L5
Format settings, BVOP                    : No
Format settings, QPel                    : No
Format settings, GMC                     : No warppoints
Format settings, Matrix                  : Default (H.263)
Codec ID                                 : XVID
Codec ID/Hint                            : XviD
Duration                                 : 1 h 47 min
Bit rate                                 : 1 597 kb/s
Width                                    : 720 pixels
Height                                   : 302 pixels
Display aspect ratio                     : 2.40:1
Frame rate                               : 23.976 (24000/1001) FPS
Color space                              : YUV
Chroma subsampling                       : 4:2:0
Bit depth                                : 8 bits
Scan type                                : Progressive
Compression mode                         : Lossy
Bits/(Pixel*Frame)                       : 0.306
Stream size                              : 1.20 GiB (92%)
Writing library                          : Lavc57.107.100

Audio
ID                                       : 1
Format                                   : MPEG Audio
Format version                           : Version 1
Format profile                           : Layer 3
Format settings                          : Joint stereo / MS Stereo
Codec ID                                 : 55
Codec ID/Hint                            : MP3
Duration                                 : 1 h 47 min
Bit rate mode                            : Constant
Bit rate                                 : 128 kb/s
Channel(s)                               : 2 channels
Sampling rate                            : 48.0 kHz
Frame rate                               : 41.667 FPS (1152 SPF)
Compression mode                         : Lossy
Stream size                              : 98.2 MiB (7%)
Alignment                                : Aligned on interleaves
Interleave, duration                     : 42  ms (1.00 video frame)
Interleave, preload duration             : 504  ms




Film Detayları


Rampage

Rampage

Rampage

Rampage

Rampage



Film Fragmanı


Film Detayları

Brrip İndir


Mega ile indir

Uptobox ile indir

Cloud Ru ile indir

 
Alinti
  


Konu ile Alakalı Benzer Konular
Konular Yazar Yorumlar Okunma Son Yorum
Filmin Yayınlanma Tarihi: 2018 Tomb Raider Türkçe Dublaj Brrip-Xvid İndir BroserBros 0 197 26-07-2018, Saat: 22:38
Son Yorum: BroserBros
Filmin Yayınlanma Tarihi: 2016 Kaplan ve Ejderha 2 (Crouching Tiger Hidden Drogon 2) Türkçe Dublaj Brrip-Xvid İndir BroserBros 0 616 23-02-2017, Saat: 21:21
Son Yorum: BroserBros
Filmin Yayınlanma Tarihi: 2016 Cehennem (Inferno) Türkçe Dublaj Brrip-Xvid İndir BroserBros 0 786 20-02-2017, Saat: 18:59
Son Yorum: BroserBros
Filmin Yayınlanma Tarihi: 2016 Avcı: Kış Askeri (The Huntsman: Winter's War) Türkçe Dublaj Brrip-Xvid İndir BroserBros 0 566 30-01-2017, Saat: 13:26
Son Yorum: BroserBros
Filmin Yayınlanma Tarihi: 2016 Ninja Kaplumbağalar: Gölgelerin İçinden Türkçe Dublaj Brrip-Xvid İndir BroserBros 0 666 26-01-2017, Saat: 19:07
Son Yorum: BroserBros

Hızlı Menü:


Şu anda bu konuyu okuyanlar: 1 Ziyaretçi