Hoşgeldin, Ziyaretçi: Giriş Yap Üye Ol


stats
Adblock'u kapattıysanız tıklayın.
Hoşgeldiniz!
Filmbol'u tercih ettiğiniz için teşekkürler, ancak ablock kullanarak devam edemezsiniz.
Merak etmeyin. Heryerden ardı ardına çıkan reklamlar görmeyeceksiniz :)

Sadece site içi 1 reklam göreceksin ve bu site gezintini etkilemeyecek.
Konuyu Oyla:
  • Derecelendirme: 0/5 - 0 oy
  • 1
  • 2
  • 3
  • 4
  • 5
Ralph ve İnternet (Ralph Breaks the Internet) Türkçe Dublaj Brrip Xvid İndir
#1
Filmin Yayınlanma Tarihi: 2019 

indirme türü


Bulut + Premium

vizyon tarihi


11 Ocak 2019

Boyutlar


1,45

diller


[TR]

altyazilar


KISIM [Eklenebilir]

Video Format: Avi


Audio Video Interleave (.AVI)

Video Detay


MPEG-4, 1594 Kbps, 1,25GB

imdb puanı


7,1 / 10,0 / 100,000

süre


112 dakika

Ses Kodek: MP3


MPEG-1 Audio Layer III (MP3)

Ses Detay


128 Kbps, 2 Kanal, 103 Mb

Editör Puanı


7,0

Genislik Yukseklik


720-302

sürüm


h263 | Brrip Xvid





Ralph ve internet


Film Detayları

2012 yapımı “Oyunbozan Ralph”in devam halkası olan Ralph ve İnternet filminde Ralph bir kez daha kurtarma görevine soyunuyor. Oyun alanının Turbo’nun intikamından kurtarılmasından altı yıl sonra Sugar Rush oyunu yeni bir tehlike altındadır. Oyun bozulmuş ve yeniden çalışması için bir parçaya ihtiyaç vardır. Eski düşman-yeni arkadaşlar olan Ralph ve Vanellope oyunu kurtarmak için Litwak'in Oyun Salonu’na internet aracılığıyla girmek zorunda kalır. İkili, internette yollarını bulmak için internet sakinlerine güvenmektedir. Bu sakinlerin arasında popüler "BuzzTube" sitesinin baş algoritması, kalbi ve ruhu olan Yesss adlı web sitesi girişimcisi de vardır. Ralph ve Vanellope gerekli olan parçayı bulup oyunu kurtarmayı başarabilecek midir? 
Filmin yönetmenliğini ilk filmin ve “Zootropolis: Hayvanlar Şehri”nin yönetmeni Rich Moore ve Phil Johnston ikilisi üstleniyor. Animasyon türündeki yapımın seslendirme kadrosunda John C. Reilly, Sarah Silverman, Taraji P. Henson, Kelly Macdonald, Gal Gadot, Kristen Bell, Mandy Moore, Alan Tudyk, Jane Lynch, Idina Menzel, Jack McBrayer ve Jodi Benson gibi isimler bulunuyor.
 
Ralph ve İnternet (Oyun Bozan Ralph 2)(Ralph Breaks the Internet) Filmi Imdb'den 100,000 kişi tarafından oylandı ve 7,1 puan aldı. Bu film için editör puanı 7,0 olarak belirlendi. İyi Seyirler!


Teknik Detaylar



Kod:
General
Complete name                            : Ralph.ve.İnternet.2018.BRRip.XviD.TR.Filmbol.avi
Format                                   : AVI
Format/Info                              : Audio Video Interleave
File size                                : 1.36 GiB
Duration                                 : 1h 52mn
Overall bit rate                         : 1 736 Kbps

Video
ID                                       : 0
Format                                   : MPEG-4 Visual
Format profile                           : Simple@L5
Format settings, BVOP                    : No
Format settings, QPel                    : No
Format settings, GMC                     : No warppoints
Format settings, Matrix                  : Default (H.263)
Codec ID                                 : XVID
Codec ID/Hint                            : XviD
Duration                                 : 1h 52mn
Bit rate                                 : 1 594 Kbps
Width                                    : 720 pixels
Height                                   : 302 pixels
Display aspect ratio                     : 2.40:1
Frame rate                               : 23.976 fps
Color space                              : YUV
Chroma subsampling                       : 4:2:0
Bit depth                                : 8 bits
Scan type                                : Progressive
Compression mode                         : Lossy
Bits/(Pixel*Frame)                       : 0.306
Stream size                              : 1.25 GiB (92%)
Writing library                          : Lavc58.35.100

Audio
ID                                       : 1
Format                                   : MPEG Audio
Format version                           : Version 1
Format profile                           : Layer 3
Mode                                     : Joint stereo
Mode extension                           : MS Stereo
Codec ID                                 : 55
Codec ID/Hint                            : MP3
Duration                                 : 1h 52mn
Bit rate mode                            : Constant
Bit rate                                 : 128 Kbps
Channel(s)                               : 2 channels
Sampling rate                            : 48.0 KHz
Compression mode                         : Lossy
Stream size                              : 103 MiB (7%)
Alignment                                : Aligned on interleaves
Interleave, duration                     : 24 ms (0.58 video frame)


Film Detayları


Ralph ve internet

Ralph ve internet

Ralph ve internet


Film Fragmanı


Film Detayları

Brrip İndir


MixDrop ile indir

Tusfiles ile indir

LetsUpload ile indir

Filmbol'da aşağıdaki linkler sadece üyelere sunulur. Ayrıca bu linklerde link kısaltma servisleri kullanılmaz, linke tek tık ile reklamsız erişirsiniz. Konu'ya yorum yapın ve sayfayı yenileyin. Reklamsız linkler (en az 3 en fazla 5 link) açılmış olacaktır. Not: Filmbol'a üye olmak tamamen ücretsizdir, en az 3 link kuralı 01.07.2019 tarihinden sonraki paylaşımlar için geçerlidir. Ancak çoğu film için en az bir premium link her zaman bulunur.

Mega

Dosyaco

Dosyaupload

Mediafire

Google Drive
 
Cevapla
#2
Çok Teşekkürler
 
Cevapla
  


Konu ile Alakalı Benzer Konular
Konular Yazar Yorumlar Okunma Son Yorum
Filmin Yayınlanma Tarihi: 2018 Örümcek Adam: Örümcek Evreninde (Spider-Man) Türkçe Dublaj Brrip Xvid İndir BroserBros 4 150 14-09-2019, Saat: 22:55
Son Yorum: edizshady
Filmin Yayınlanma Tarihi: 2019 Mucizeler Parkı (Wonder Park) Türkçe Dublaj Brrip Xvid İndir BroserBros 0 83 08-07-2019, Saat: 19:35
Son Yorum: BroserBros
Filmin Yayınlanma Tarihi: 2019 Karlar Kraliçesi 4: Sihirli Ayna (Snezhnaya koroleva) Türkçe Dublaj Brrip Xvid İndir BroserBros 0 110 08-07-2019, Saat: 16:11
Son Yorum: BroserBros
Filmin Yayınlanma Tarihi: 2017 Ayı Paddington 2 (Paddington 2) Türkçe Dublaj Brrip-Xvid İndir BroserBros 0 644 23-08-2018, Saat: 20:16
Son Yorum: BroserBros
Filmin Yayınlanma Tarihi: 2018 Taş Devri Firarda (Early Man) Türkçe Dublaj Brrip-Xvid İndir BroserBros 0 714 02-08-2018, Saat: 16:14
Son Yorum: BroserBros

Hızlı Menü:


Şu anda bu konuyu okuyanlar: 2 Ziyaretçi