Hoşgeldin, Ziyaretçi: Giriş Yap Üye Ol


stats
Adblock'u kapattıysanız tıklayın.
Hoşgeldiniz!
Filmbol'u tercih ettiğiniz için teşekkürler, ancak ablock kullanarak devam edemezsiniz.
Merak etmeyin. Heryerden ardı ardına çıkan reklamlar görmeyeceksiniz :)

Sadece site içi 1 reklam göreceksin ve bu site gezintini etkilemeyecek.
Konuyu Oyla:
  • Derecelendirme: 0/5 - 0 oy
  • 1
  • 2
  • 3
  • 4
  • 5
Title: Ralph ve İnternet (Ralph Breaks the Internet) Türkçe Dublaj BLURAY m1080P İndir
Gösterim Stili
#1
Filmin Yayınlanma Tarihi: 2019 

indirme türü


Bulut + Premium

vizyon tarihi


11 Ocak 2019

Boyutlar


2,13

diller


[TR]

altyazilar


KISIM [Eklenebilir]

Video Format: Mkv


Matroska (.MKV)

Video Detay


MPEG-4, 2150 Kbps, 1,69GB

imdb puanı


7,1 / 10,0 / 100,000

süre


112 dakika

Ses Kodek: AC3


Audio Coding 3 (AC3)

Ses Detay


384 Kbps, 6 Kanal, 310 Mb

Editör Puanı


7,0

Genislik Yukseklik


1920-800

sürüm


x264| m1080P





Ralph ve internet


Film Detayları

2012 yapımı “Oyunbozan Ralph”in devam halkası olan Ralph ve İnternet filminde Ralph bir kez daha kurtarma görevine soyunuyor. Oyun alanının Turbo’nun intikamından kurtarılmasından altı yıl sonra Sugar Rush oyunu yeni bir tehlike altındadır. Oyun bozulmuş ve yeniden çalışması için bir parçaya ihtiyaç vardır. Eski düşman-yeni arkadaşlar olan Ralph ve Vanellope oyunu kurtarmak için Litwak'in Oyun Salonu’na internet aracılığıyla girmek zorunda kalır. İkili, internette yollarını bulmak için internet sakinlerine güvenmektedir. Bu sakinlerin arasında popüler "BuzzTube" sitesinin baş algoritması, kalbi ve ruhu olan Yesss adlı web sitesi girişimcisi de vardır. Ralph ve Vanellope gerekli olan parçayı bulup oyunu kurtarmayı başarabilecek midir? 
Filmin yönetmenliğini ilk filmin ve “Zootropolis: Hayvanlar Şehri”nin yönetmeni Rich Moore ve Phil Johnston ikilisi üstleniyor. Animasyon türündeki yapımın seslendirme kadrosunda John C. Reilly, Sarah Silverman, Taraji P. Henson, Kelly Macdonald, Gal Gadot, Kristen Bell, Mandy Moore, Alan Tudyk, Jane Lynch, Idina Menzel, Jack McBrayer ve Jodi Benson gibi isimler bulunuyor.
 
Ralph ve İnternet (Oyun Bozan Ralph 2)(Ralph Breaks the Internet) Filmi Imdb'den 100,000 kişi tarafından oylandı ve 7,1 puan aldı. Bu film için editör puanı 7,0 olarak belirlendi. İyi Seyirler!


Teknik Detaylar


Kod:
General
Complete name                            : Ralph.ve.İnternet.2018.m1080p.BLURAY.x264.TR.Filmbol.mkv
Format                                   : Matroska
Format version                           : Version 4 / Version 2
File size                                : 1.99 GiB
Duration                                 : 1h 52mn
Overall bit rate                         : 2 527 Kbps
Movie name                               : Ralph ve İnternet (2018) - Filmbol.org
Encoded date                             : UTC 2019-08-20 16:16:51
Writing application                      : mkvmerge v35.0.0 ('All The Love In The World') 64-bit
Writing library                          : libebml v1.3.9 + libmatroska v1.5.2

Video
ID                                       : 1
Format                                   : AVC
Format/Info                              : Advanced Video Codec
Format profile                           : High@L4.1
Format settings, CABAC                   : Yes
Format settings, ReFrames                : 4 frames
Codec ID                                 : V_MPEG4/ISO/AVC
Duration                                 : 1h 52mn
Bit rate                                 : 2 150 Kbps
Width                                    : 1 920 pixels
Height                                   : 800 pixels
Display aspect ratio                     : 2.40:1
Frame rate mode                          : Constant
Frame rate                               : 23.976 (24000/1001) fps
Color space                              : YUV
Chroma subsampling                       : 4:2:0
Bit depth                                : 8 bits
Scan type                                : Progressive
Bits/(Pixel*Frame)                       : 0.058
Stream size                              : 1.69 GiB (85%)
Title                                    : m1080P - Filmbol.org
Writing library                          : x264 core 157
Default                                  : Yes
Forced                                   : No

Audio
ID                                       : 2
Format                                   : AC-3
Format/Info                              : Audio Coding 3
Mode extension                           : CM (complete main)
Format settings, Endianness              : Big
Codec ID                                 : A_AC3
Duration                                 : 1h 52mn
Bit rate mode                            : Constant
Bit rate                                 : 384 Kbps
Channel(s)                               : 6 channels
Channel positions                        : Front: L C R, Side: L R, LFE
Sampling rate                            : 48.0 KHz
Frame rate                               : 31.250 fps (1536 spf)
Compression mode                         : Lossy
Stream size                              : 310 MiB (15%)
Title                                    : Türkçe - Filmbol.org
Language                                 : Turkish
Default                                  : Yes
Forced                                   : No

Text
ID                                       : 3
Format                                   : UTF-8
Codec ID                                 : S_TEXT/UTF8
Codec ID/Info                            : UTF-8 Plain Text
Duration                                 : 1h 36mn
Bit rate                                 : 0 bps
Count of elements                        : 17
Stream size                              : 404 Bytes (0%)
Title                                    : KISIM
Language                                 : Turkish
Default                                  : Yes
Forced                                   : Yes


Film Detayları


Ralph ve internet

Ralph ve internet

Ralph ve internet


Film Fragmanı


Film Detayları

Mini 1080P İndir


MixDrop ile indir

Tusfiles ile indir

LetsUpload ile indir


Mega linki şuan da gizli. Kullanıma açmak için konuya yorum yapın ve ardından sayfayı yenileyin. Ayrıca bu linki açtığınızda reklamsız olarak erişebileceğinizi unutmayın.

Mega


Dosya Upload ile indir

Mediafire linki şuan da gizli. Kullanıma açmak için konuya yorum yapın ve ardından sayfayı yenileyin. Ayrıca bu linki açtığınızda reklamsız olarak erişebileceğinizi unutmayın.

Mediafire


Google Drive linki şuan da gizli. Kullanıma açmak için konuya yorum yapın ve ardından sayfayı yenileyin. Ayrıca bu linki açtığınızda reklamsız olarak erişebileceğinizi unutmayın.

Google Drive


 
Cevapla
#2
süper
 
Cevapla
#3
İZLEYELİM BAKALIM
 
Cevapla
#4
güzeeelll
 
Cevapla
#5
teşekkürler
 
Cevapla
#6
tesekkürler
 
Cevapla
  


Konu ile Alakalı Benzer Konular
Konular Yazar Yorumlar Okunma Son Yorum
Filmin Yayınlanma Tarihi: 2019 Evcil Hayvanların Gizli Yaşamı 2 (Pets 2) Türkçe Dublaj BLURAY m1080P İndir BroserBros 4 83 11 saat önce
Son Yorum: arda_26
Filmin Yayınlanma Tarihi: 2019 Oyuncak Hikayesi 4 (Toy Story 4) Türkçe Dublaj BLURAY m1080P İndir BroserBros 9 164 , Saat: 05:32
Son Yorum: ozcanveli
Filmin Yayınlanma Tarihi: 2018 Örümcek Adam: Örümcek Evreninde (Spider-Man) Türkçe Dublaj BLURAY m1080P İndir BroserBros 6 389 15-11-2019, Saat: 02:51
Son Yorum: welts

Hızlı Menü:


Browsing: 1 Ziyaretçi