Filmbol Forum Film İndir FHD - FULL HD v Rahat Kız (An Easy Girl) - 2019 - TR+ORG - FHD - x264
Filmbol'da moderatör olmak ister misiniz? Bizimle iletişime geçmek için tıklayın!
Rahat Kız (An Easy Girl) - 2019 - TR+ORG - FHD - x264
BroserBros
Rahat Kız (An Easy Girl) - 2019 - TR+ORG - FHD - x264
0
804
  • Derecelendirme: 0/5 - 0 oy
  • 1
  • 2
  • 3
  • 4
  • 5
Konuyu Okuyanlar:1 Ziyaretçi
Şuan Online!
Filmin Yayınlanma Tarihi: 2019 
Şuan Online!
BroserBros Kurucu Admin
*******
Admin

Vizyon Tarihi


28 Ağustos 2019

imdb puanı


5,5 / 4,000

süre


92 dakika

Editör Puanı


6,0 / 10

Video Format: Mkv


Matroska (.MKV)

Ses Kodek: AC3


Audio Coding 3 (AC3)

sürüm


x264 | BluRay

Boyutlar


6,80 GB



 Rahat Kız



Naima genç bir kız olmasına karşın önemli bir karar alması gerekmektedir. Bir yaz tatili düzenleyen Naima bu tatilde hem kafa dağıtacak hemde bu kararı sonuçlandıracaktır. Fakat tatile çıkacağı sırada kuzeni Sofia geldiğinde işler tamamen değişecektir...

Rahat Kız (2019) (An Easy Girl) Filmi Imdb'den 4,000 kişi tarafından oylandı ve 5,5 puan aldı. Bu film için editör puanı 6,0 olarak belirlendi. İyi Seyirler!

Teknik Detaylar

Kod :
eneral
Unique ID                                : 215050706108572210463608771553559351991 (0xA1C9426B0711E437C81440CB206092B7)
Complete name                            : /root/Desktop/4/Rahat.Kız.2019.FHD.BluRay.x264.TR.FR.Filmbol.mkv
Format                                  : Matroska
Format version                          : Version 4 / Version 2
File size                                : 6.80 GiB
Duration                                : 1h 32mn
Overall bit rate                        : 10.5 Mbps
Movie name                              : Rahat Kız - An Easy Girl - 2019 | Filmbol.org
Encoded date                            : UTC 2020-10-02 11:47:04
Writing application                      : mkvmerge v8.8.0 ('Wind at my back') 64bit
Writing library                          : libebml v1.3.3 + libmatroska v1.4.4

Video
ID                                      : 1
Format                                  : AVC
Format/Info                              : Advanced Video Codec
Format profile                          : High@L4.1
Format settings, CABAC                  : Yes
Format settings, ReFrames                : 5 frames
Codec ID                                : V_MPEG4/ISO/AVC
Duration                                : 1h 32mn
Bit rate                                : 9 216 Kbps
Width                                    : 1 920 pixels
Height                                  : 804 pixels
Display aspect ratio                    : 2.40:1
Frame rate mode                          : Constant
Frame rate                              : 24.000 fps
Color space                              : YUV
Chroma subsampling                      : 4:2:0
Bit depth                                : 8 bits
Scan type                                : Progressive
Bits/(Pixel*Frame)                      : 0.249
Stream size                              : 5.97 GiB (88%)
Title                                    : Rahat Kız - An Easy Girl - 2019 | Filmbol.org
Writing library                          : x264 core 159 r2991 1771b55
Encoding settings                        : cabac=1 / ref=5 / deblock=1:-3:-3 / analyse=0x3:0x133 / me=umh / subme=10 / psy=1 / psy_rd=1.00:0.00 / mixed_ref=1 / me_range=24 / chroma_me=1 / trellis=2 / 8x8dct=1 / cqm=0 / deadzone=21,11 / fast_pskip=0 / chroma_qp_offset=-2 / threads=12 / lookahead_threads=3 / sliced_threads=0 / nr=0 / decimate=0 / interlaced=0 / bluray_compat=0 / constrained_intra=0 / bframes=10 / b_pyramid=2 / b_adapt=2 / b_bias=0 / direct=3 / weightb=1 / open_gop=0 / weightp=2 / keyint=240 / keyint_min=24 / scenecut=40 / intra_refresh=0 / rc_lookahead=60 / rc=crf / mbtree=0 / crf=16.5 / qcomp=0.60 / qpmin=0 / qpmax=69 / qpstep=4 / vbv_maxrate=62500 / vbv_bufsize=78125 / crf_max=0.0 / nal_hrd=none / filler=0 / ip_ratio=1.35 / pb_ratio=1.25 / aq=2:0.90
Language                                : French
Default                                  : Yes
Forced                                  : No

Audio #1
ID                                      : 2
Format                                  : AC-3
Format/Info                              : Audio Coding 3
Mode extension                          : CM (complete main)
Format settings, Endianness              : Big
Codec ID                                : A_AC3
Duration                                : 1h 32mn
Bit rate mode                            : Constant
Bit rate                                : 640 Kbps
Channel(s)                              : 6 channels
Channel positions                        : Front: L C R, Side: L R, LFE
Sampling rate                            : 48.0 KHz
Frame rate                              : 31.250 fps (1536 spf)
Compression mode                        : Lossy
Stream size                              : 425 MiB (6%)
Title                                    : Rahat Kız - An Easy Girl - 2019 | Filmbol.org
Language                                : Turkish
Default                                  : Yes
Forced                                  : No

Audio #2
ID                                      : 3
Format                                  : AC-3
Format/Info                              : Audio Coding 3
Mode extension                          : CM (complete main)
Format settings, Endianness              : Big
Codec ID                                : A_AC3
Duration                                : 1h 32mn
Bit rate mode                            : Constant
Bit rate                                : 640 Kbps
Channel(s)                              : 6 channels
Channel positions                        : Front: L C R, Side: L R, LFE
Sampling rate                            : 48.0 KHz
Frame rate                              : 31.250 fps (1536 spf)
Compression mode                        : Lossy
Stream size                              : 424 MiB (6%)
Title                                    : Rahat Kız - An Easy Girl - 2019 | Filmbol.org
Language                                : French
Default                                  : No
Forced                                  : No

Text #1
ID                                      : 4
Format                                  : UTF-8
Codec ID                                : S_TEXT/UTF8
Codec ID/Info                            : UTF-8 Plain Text
Duration                                : 1h 31mn
Bit rate                                : 1 bps
Count of elements                        : 34
Stream size                              : 832 Bytes (0%)
Title                                    : Rahat Kız - An Easy Girl - 2019 | Filmbol.org
Language                                : Turkish
Default                                  : Yes
Forced                                  : Yes

Text #2
ID                                      : 5
Format                                  : UTF-8
Codec ID                                : S_TEXT/UTF8
Codec ID/Info                            : UTF-8 Plain Text
Duration                                : 1h 31mn
Bit rate                                : 36 bps
Count of elements                        : 1010
Stream size                              : 24.5 KiB (0%)
Title                                    : Rahat Kız - An Easy Girl - 2019 | Filmbol.org
Language                                : Turkish
Default                                  : No
Forced                                  : No

Film Detayları


 Rahat Kız

 Rahat Kız

 Rahat Kız


Film Fragmanı


Film Detayları

Uptobox ile indir

1Fichier ile indir

1Fichier'den İndiremiyor musun? Tıklayın!


Mega ile indir

Bunun için üzgünüz ancak, bu linke sadece premium üyeler erişebilir.

Filmbol Cloud



Konu ile Alakalı Benzer Konular
Konular Yazar Yorumlar Okunma Son Yorum
Filmin Yayınlanma Tarihi: 2019
Hain (The Traitor / Il traditore) - 2019 - TR+ORG - FHD - x264 BroserBros 0 23 , Saat: 16:05
Son Yorum: BroserBros
Filmin Yayınlanma Tarihi: 2020
All Together Now (All Together Now) - 2020 - TR+ORG - FHD - x264 BroserBros 0 21 , Saat: 15:49
Son Yorum: BroserBros
Filmin Yayınlanma Tarihi: 2018
Vita & Virginia (Vita ve Virginia) - 2018 - TR+ORG - FHD - x264 BroserBros 0 19 , Saat: 15:32
Son Yorum: BroserBros
Filmin Yayınlanma Tarihi: 2018
Tutarsız Adam (Spinning Man) - 2018 - TR+ORG - FHD - x264 BroserBros 0 29 25-11-2020, Saat: 17:28
Son Yorum: BroserBros
Filmin Yayınlanma Tarihi: 2019
Geri Sayım (Countdown) - 2019 - TR+ORG - FHD - x264 BroserBros 0 30 25-11-2020, Saat: 15:54
Son Yorum: BroserBros

Hızlı Menü: