Filmbol Forum Film İndir FHD - FULL HD v Proje (Project Power) - 2020 - TR+ORG - FHD - x264
Filmbol'da moderatör olmak ister misiniz? Bizimle iletişime geçmek için tıklayın!
Proje (Project Power) - 2020 - TR+ORG - FHD - x264
BroserBros
Proje (Project Power) - 2020 - TR+ORG - FHD - x264
0
119
  • Derecelendirme: 0/5 - 0 oy
  • 1
  • 2
  • 3
  • 4
  • 5
Konuyu Okuyanlar:1 Ziyaretçi
Şuan Online!
Filmin Yayınlanma Tarihi: 2020 
Şuan Online!
BroserBros Kurucu Admin
*******
Admin

Vizyon Tarihi


14 Ağustos 2020

imdb puanı


6,0 / 62,000

süre


113 dakika

Editör Puanı


6,3 / 10

Video Format: Mkv


Matroska (.MKV)

Ses Kodek: AC3


Audio Coding 3 (AC3)

sürüm


x264 | WEB-DL

Boyutlar


5,34 GB



 Project Power



Yeni üretilen bir hap sonucu net olmayan şeyler doğurur. Bazı insanlara yeni özel güçler tanıyan hap bazı kişilerde ise ölümcül yan etkiler doğursada herkes özel güçlere sahip olma arzusundan dolayı kullanır. Ancak yaşamayı sürdürebilen kişiler özel güçlere sahip olduğundan suç işlemeye başlar ve şehrin düzeni alt üst olduğunda polis devreye girer.

Project Power (2020) (Project Power) Filmi Imdb'den 62,000 kişi tarafından oylandı ve 6,0 puan aldı. Bu film için editör puanı 6,3 olarak belirlendi. İyi Seyirler!

Teknik Detaylar

Kod :
General
Unique ID                                : 308907142783291234485804390020275475922 (0xE8655A0490706CF6CBECCDB4E51795D2)
Complete name                            : /root/Desktop/5/Project.Power.2020.FHD.WEB-DL.x264.TR.ENG.Filmbol.mkv
Format                                  : Matroska
Format version                          : Version 4 / Version 2
File size                                : 5.34 GiB
Duration                                : 1h 53mn
Overall bit rate mode                    : Variable
Overall bit rate                        : 6 748 Kbps
Movie name                              : Project Power - Proje - 2020 | Filmbol.org
Encoded date                            : UTC 2020-11-06 12:35:03
Writing application                      : mkvmerge v8.8.0 ('Wind at my back') 64bit
Writing library                          : libebml v1.3.3 + libmatroska v1.4.4

Video
ID                                      : 1
Format                                  : AVC
Format/Info                              : Advanced Video Codec
Format profile                          : Main@L4
Format settings, CABAC                  : Yes
Format settings, ReFrames                : 3 frames
Codec ID                                : V_MPEG4/ISO/AVC
Duration                                : 1h 53mn
Bit rate mode                            : Variable
Bit rate                                : 5 800 Kbps
Maximum bit rate                        : 8 700 Kbps
Width                                    : 1 920 pixels
Height                                  : 1 080 pixels
Display aspect ratio                    : 16:9
Frame rate mode                          : Constant
Frame rate                              : 24.000 fps
Color space                              : YUV
Chroma subsampling                      : 4:2:0
Bit depth                                : 8 bits
Scan type                                : Progressive
Bits/(Pixel*Frame)                      : 0.117
Stream size                              : 4.53 GiB (85%)
Title                                    : Project Power - Proje - 2020 | Filmbol.org
Writing library                          : x264 core 148 r2722 1b0121b
Encoding settings                        : cabac=1 / ref=3 / deblock=1:0:0 / analyse=0x1:0x111 / me=umh / subme=10 / psy=1 / psy_rd=1.00:0.00 / mixed_ref=1 / me_range=24 / chroma_me=1 / trellis=2 / 8x8dct=0 / cqm=0 / deadzone=21,11 / fast_pskip=1 / chroma_qp_offset=-2 / threads=8 / lookahead_threads=1 / sliced_threads=0 / nr=0 / decimate=1 / interlaced=0 / bluray_compat=0 / stitchable=1 / constrained_intra=0 / bframes=2 / b_pyramid=0 / b_adapt=2 / b_bias=0 / direct=3 / weightb=1 / open_gop=0 / weightp=2 / keyint=250 / keyint_min=24 / scenecut=0 / intra_refresh=0 / rc_lookahead=48 / rc=2pass / mbtree=1 / bitrate=5800 / ratetol=1.0 / qcomp=0.50 / qpmin=6 / qpmax=51 / qpstep=4 / cplxblur=20.0 / qblur=0.5 / vbv_maxrate=8700 / vbv_bufsize=11600 / nal_hrd=vbr / filler=0 / ip_ratio=1.40 / aq=1:1.00
Default                                  : Yes
Forced                                  : No

Audio #1
ID                                      : 2
Format                                  : AC-3
Format/Info                              : Audio Coding 3
Mode extension                          : CM (complete main)
Format settings, Endianness              : Big
Codec ID                                : A_AC3
Duration                                : 1h 53mn
Bit rate mode                            : Constant
Bit rate                                : 640 Kbps
Channel(s)                              : 6 channels
Channel positions                        : Front: L C R, Side: L R, LFE
Sampling rate                            : 48.0 KHz
Frame rate                              : 31.250 fps (1536 spf)
Compression mode                        : Lossy
Stream size                              : 519 MiB (9%)
Title                                    : Project Power - Proje - 2020 | Filmbol.org
Language                                : Turkish
Default                                  : Yes
Forced                                  : No

Audio #2
ID                                      : 3
Format                                  : AC-3
Format/Info                              : Audio Coding 3
Mode extension                          : CM (complete main)
Format settings, Endianness              : Big
Codec ID                                : A_AC3
Duration                                : 1h 53mn
Bit rate mode                            : Constant
Bit rate                                : 384 Kbps
Channel(s)                              : 6 channels
Channel positions                        : Front: L C R, Side: L R, LFE
Sampling rate                            : 48.0 KHz
Frame rate                              : 31.250 fps (1536 spf)
Compression mode                        : Lossy
Stream size                              : 311 MiB (6%)
Title                                    : Project Power - Proje - 2020 | Filmbol.org
Language                                : English
Default                                  : No
Forced                                  : No

Text #1
ID                                      : 4
Format                                  : UTF-8
Codec ID                                : S_TEXT/UTF8
Codec ID/Info                            : UTF-8 Plain Text
Duration                                : 1h 51mn
Bit rate                                : 0 bps
Count of elements                        : 31
Stream size                              : 657 Bytes (0%)
Title                                    : Project Power - Proje - 2020 | Filmbol.org
Language                                : Turkish
Default                                  : Yes
Forced                                  : Yes

Text #2
ID                                      : 5
Format                                  : UTF-8
Codec ID                                : S_TEXT/UTF8
Codec ID/Info                            : UTF-8 Plain Text
Duration                                : 1h 51mn
Bit rate                                : 46 bps
Count of elements                        : 1381
Stream size                              : 37.9 KiB (0%)
Title                                    : Project Power - Proje - 2020 | Filmbol.org
Language                                : Turkish
Default                                  : No
Forced                                  : No

Film Detayları


 Project Power

 Project Power

 Project Power


Film Fragmanı


Film Detayları

Uptobox ile indir

1Fichier ile indir

1Fichier'den İndiremiyor musun? Tıklayın!


Mega ile indir

Bunun için üzgünüz ancak, bu linke sadece premium üyeler erişebilir.

Filmbol Cloud



Konu ile Alakalı Benzer Konular
Konular Yazar Yorumlar Okunma Son Yorum
Filmin Yayınlanma Tarihi: 2020
Zengo (Zengo) - 2020 - TR+ORG - FHD - x264 BroserBros 0 19 , Saat: 14:08
Son Yorum: BroserBros
Filmin Yayınlanma Tarihi: 2019
Yalan Dolan (Yalan Dolan) - 2019 - TR+ORG - FHD - x264 BroserBros 0 19 , Saat: 13:57
Son Yorum: BroserBros
Filmin Yayınlanma Tarihi: 2019
Hatıra (The Souvenir) - 2019 - TR+ORG - FHD - x264 BroserBros 0 19 , Saat: 13:05
Son Yorum: BroserBros
Filmin Yayınlanma Tarihi: 2020
My Spy (My Spy) - 2020 - TR+ORG - FHD - x264 BroserBros 0 19 , Saat: 12:54
Son Yorum: BroserBros
Filmin Yayınlanma Tarihi: 2019
Luce (Luce) - 2019 - TR+ORG - FHD - x264 BroserBros 0 28 28-11-2020, Saat: 17:58
Son Yorum: BroserBros

Hızlı Menü: